<?xml version="1.0" standalone="no"?>
<!DOCTYPE svg PUBLIC "-//W3C//DTD SVG 1.1//EN" "http://www.w3.org/Graphics/SVG/1.1/DTD/svg11.dtd" >
<svg xmlns="http://www.w3.org/2000/svg">
<metadata></metadata>
<defs>
<font id="av1italic" horiz-adv-x="1138" >
<font-face units-per-em="2048" ascent="1548" descent="-500" />
<missing-glyph horiz-adv-x="569" />
<glyph horiz-adv-x="2048" />
<glyph horiz-adv-x="2048" />
<glyph unicode="&#xd;" horiz-adv-x="2048" />
<glyph unicode=" "  horiz-adv-x="569" />
<glyph unicode="&#x09;" horiz-adv-x="569" />
<glyph unicode="&#xa0;" horiz-adv-x="569" />
<glyph unicode="!" horiz-adv-x="569" d="M178 111q6 51 47 86.5t92 35.5t82 -35.5t25 -86.5q-8 -51 -51 -87t-90 -36t-80 35.5t-25 87.5zM256 406l147 1044h172l-147 -1044h-172z" />
<glyph unicode="&#x22;" horiz-adv-x="1062" d="M442 958l70 492h147l-69 -492h-148zM743 958l70 492h148l-70 -492h-148z" />
<glyph unicode="#" d="M123 436l18 135h221l87 312h-201l18 135h221l123 432h138l-123 -432h258l123 432h137l-123 -432h201l-19 -135h-219l-88 -312h201l-19 -135h-221l-123 -436h-137l123 436h-258l-123 -436h-137l123 436h-201zM500 571h258l88 312h-258z" />
<glyph unicode="$" d="M109 166l161 125q35 -70 111 -111t162 -45l73 520q-78 20 -146.5 54t-117.5 83.5t-71.5 118t-10.5 160.5q12 86 55.5 157.5t106 124t140 84t159.5 38.5l19 135h98l-19 -135q111 0 212.5 -41t162.5 -125l-153 -123q-37 61 -100.5 95t-143.5 34l-72 -510q80 -27 153 -57.5 t127 -76.5t80.5 -114t12.5 -168q-12 -92 -57 -165.5t-112 -127t-149.5 -84t-171.5 -37.5l-20 -145h-98l20 145q-129 0 -238.5 43t-172.5 148zM453 1069q-6 -53 5 -90t37.5 -63.5t64.5 -46t81 -38.5l68 484q-102 -18 -172 -83t-84 -163zM641 135q106 12 186 80t95 166 q8 55 -7.5 96t-46 69.5t-71.5 48t-86 34.5z" />
<glyph unicode="%" horiz-adv-x="1705" d="M236 1116q10 76 46.5 141.5t92 113.5t124 76t144.5 28t137.5 -28t102.5 -76t60.5 -113.5t8.5 -141.5q-10 -76 -48 -141.5t-93 -113.5t-124 -75.5t-144 -27.5q-76 0 -137.5 27.5t-102.5 75.5t-59 113.5t-8 141.5zM348 0l1122 1516l105 -66l-1122 -1516zM383 1116 q-6 -43 5 -81t36 -67.5t60.5 -46t78.5 -16.5t83 16.5t74 46t56.5 67.5t28.5 81t-6.5 81t-37 67.5t-60 46t-78.5 16.5t-83 -16.5t-74 -46t-55.5 -67.5t-27.5 -81zM958 334q10 76 47 141.5t92.5 113.5t125 75.5t145.5 27.5t137.5 -27.5t102.5 -75.5t59.5 -113.5t7.5 -141.5 q-10 -76 -48 -141.5t-93 -113.5t-124 -76t-144 -28q-76 0 -137.5 28t-102.5 76t-59.5 113.5t-8.5 141.5zM1106 334q-6 -43 5 -81t35.5 -67.5t60.5 -46t79 -16.5t83 16.5t74 46t56.5 67.5t28.5 81t-6.5 81t-37 67.5t-60 46t-78.5 16.5t-83 -16.5t-73 -46t-55.5 -67.5 t-28.5 -81z" />
<glyph unicode="&#x26;" horiz-adv-x="1478" d="M178 389q10 76 45 140.5t86 116.5t115.5 92t134.5 71q-31 37 -57.5 74t-45 77.5t-25.5 86t1 98.5q10 80 49 142.5t96.5 104.5t128 63.5t146.5 21.5q74 0 137.5 -20.5t107.5 -60.5t64.5 -100.5t7.5 -140.5q-10 -68 -44.5 -124t-85 -100t-111 -80t-117.5 -65l262 -325 l240 325h194l-342 -446l285 -340h-236l-167 209q-104 -111 -213 -172.5t-254 -61.5q-92 0 -172 28t-135.5 81t-82 130t-12.5 175zM350 395q-8 -59 7.5 -108t49 -86t82 -57.5t105.5 -20.5q55 0 104.5 16.5t94.5 44t85 63.5t80 77l-309 381q-49 -25 -99 -54.5t-91 -66.5 t-71 -84t-38 -105zM602 1135q-8 -59 16.5 -105.5t57.5 -85.5l43 -53q43 23 90 47.5t87 55t67.5 71.5t35.5 94q10 80 -38 125t-123 45q-86 0 -155 -52t-81 -142z" />
<glyph unicode="'" horiz-adv-x="569" d="M346 958l70 492h147l-69 -492h-148z" />
<glyph unicode="(" horiz-adv-x="569" d="M195 590q37 254 147.5 485.5t280.5 423.5l98 -82q-156 -180 -251 -391t-128 -436q-16 -123 -15 -229.5t19.5 -206t54 -195.5t86.5 -201l-120 -77q-119 203 -162 438t-10 471z" />
<glyph unicode=")" horiz-adv-x="569" d="M14 -238q156 180 251 391.5t126 436.5q18 123 17.5 229.5t-19 205.5t-54.5 195.5t-87 200.5l121 78q117 -203 160.5 -438.5t9.5 -470.5q-35 -254 -145.5 -485.5t-280.5 -423.5z" />
<glyph unicode="*" horiz-adv-x="909" d="M221 1124l55 119l279 -98l43 305h123l-43 -305l303 98l23 -119l-304 -98l150 -244l-113 -77l-147 251l-215 -251l-90 77l211 244z" />
<glyph unicode="+" horiz-adv-x="1363" d="M225 553l19 135h467l65 467h135l-65 -467h467l-19 -135h-467l-65 -467h-135l65 467h-467z" />
<glyph unicode="," horiz-adv-x="569" d="M68 -283l206 492h187l-236 -492h-157z" />
<glyph unicode="-" horiz-adv-x="681" d="M150 418l20 147h502l-21 -147h-501z" />
<glyph unicode="." horiz-adv-x="569" d="M178 111q6 51 47 86.5t92 35.5t82 -35.5t25 -86.5q-8 -51 -51 -87t-90 -36t-80 35.5t-25 87.5z" />
<glyph unicode="/" horiz-adv-x="757" d="M0 -37l838 1573l123 -49l-838 -1575z" />
<glyph unicode="0" d="M164 469q-2 133 16 256q16 123 55 256t110 242.5t176.5 180.5t254.5 71q100 0 171 -33t117 -88.5t71.5 -130t36 -157.5t6.5 -171t-15 -170q-18 -123 -57 -256t-109.5 -242.5t-176 -180.5t-255.5 -71t-235.5 71t-124.5 180.5t-41 242.5zM336 474.5q2 -66.5 14 -130 t41 -113t76 -79t119 -29.5t127 29.5t98 79t73.5 113t51 130t34 132t21.5 118.5q6 53 12.5 118.5t3.5 132t-15.5 130t-41 113t-76 79t-118.5 29.5q-109 0 -180.5 -64.5t-117.5 -156.5t-71 -196.5t-35 -184.5q-8 -53 -13 -118.5t-3 -132z" />
<glyph unicode="1" d="M358 1135l435 315h149l-205 -1450h-172l172 1229h-4l-291 -219z" />
<glyph unicode="2" d="M102 0l27 197l623 532q57 49 102 91t76 82t50 83t26 96q16 115 -51.5 180.5t-178.5 65.5t-191.5 -63.5t-115.5 -167.5l-184 16q27 88 77 156.5t115.5 113.5t145 69t168.5 24q90 0 166.5 -26t130 -75t79 -122.5t11.5 -170.5q-12 -86 -46 -155.5t-81 -128t-105.5 -110.5 t-120.5 -103l-506 -420v-4h740l-23 -160h-934z" />
<glyph unicode="3" d="M115 281l182 57q23 -117 82 -166t180 -49q61 0 117.5 20.5t102.5 58.5t76 90t40 116q12 80 -13.5 134t-72.5 85.5t-110.5 46t-131.5 14.5h-53l21 148h53q53 0 113.5 8t112.5 34.5t90 77t50 131.5q14 111 -46 175.5t-169 64.5q-92 0 -165.5 -41t-122.5 -121l-158 64 q72 123 193.5 184.5t261.5 61.5q86 0 161.5 -25t128 -72t77 -117.5t11.5 -164.5q-16 -115 -97 -206t-198 -126v-4q68 -12 118 -45t82 -81t44 -109.5t2 -129.5q-14 -104 -64 -182t-123 -131t-164 -80t-187 -27q-166 0 -279 72t-145 234z" />
<glyph unicode="4" d="M119 332l26 190l707 928h211l-135 -958h209l-23 -160h-209l-47 -332h-172l47 332h-614zM289 492h467l106 757h-4z" />
<glyph unicode="5" d="M129 240l182 65q25 -82 88.5 -132t155.5 -50q66 0 126 23.5t108.5 67.5t81 105.5t42.5 137.5q12 80 -7 141t-61 103t-104.5 63.5t-138.5 21.5q-74 0 -155.5 -25.5t-151.5 -64.5l121 754h760l-23 -160h-592l-61 -391q45 20 95 27.5t95 7.5q104 0 184 -36t132.5 -100.5 t73 -151.5t5.5 -189q-14 -109 -64 -198t-126 -151.5t-172 -97.5t-203 -35q-164 0 -257 72t-134 193z" />
<glyph unicode="6" d="M145 430q16 125 68.5 219t124.5 189l473 612h201l-475 -604l4 -4q43 23 99 33t101 10q94 0 170 -33t126 -93.5t71.5 -144.5t7.5 -184q-16 -106 -65.5 -190t-123 -142.5t-166.5 -90.5t-196 -32q-102 0 -187 32t-141.5 90.5t-82 142.5t-9.5 190zM317 430q-10 -72 6.5 -128 t53.5 -96t90 -61.5t119 -21.5t126 21.5t108 61.5t81 96t43 128q8 70 -8 127t-53 97t-90 61.5t-119 21.5t-126.5 -21.5t-108.5 -61.5t-80.5 -97t-41.5 -127z" />
<glyph unicode="7" d="M209 0l772 1290h-700l22 160h885l-23 -160l-762 -1290h-194z" />
<glyph unicode="8" d="M162 399q10 68 38.5 130.5t73.5 111.5t102.5 83t125.5 48v4q-53 14 -92 47t-63.5 76t-34 94.5t-3.5 102.5q12 86 54.5 155.5t104.5 118.5t141 77t167 28t160 -28t121 -77t70.5 -118.5t9.5 -155.5q-6 -51 -30 -102.5t-60.5 -94.5t-86 -75.5t-106.5 -47.5v-4 q63 -14 111.5 -48t79 -83t42 -111.5t0.5 -130.5q-14 -98 -61 -177t-116.5 -134t-158.5 -84t-186 -29q-96 0 -177 29t-135 84t-80 134t-11 177zM336 412q-8 -63 7 -116.5t49 -91.5t83 -59.5t111 -21.5q61 0 117.5 21.5t100.5 59.5t74.5 91t39.5 117q8 63 -6.5 116.5t-48.5 91 t-84 59t-111 21.5t-116.5 -21.5t-100.5 -59t-76 -91t-39 -116.5zM481 1087q-16 -104 41.5 -171.5t165.5 -67.5q109 0 184.5 67.5t92.5 171.5q14 104 -43.5 172t-165.5 68q-109 0 -185 -68t-90 -172z" />
<glyph unicode="9" d="M227 1020q14 106 63.5 190t123 142.5t167 90.5t195.5 32t187.5 -32t141.5 -90.5t81.5 -142.5t11.5 -190q-18 -127 -70.5 -220t-123.5 -188l-472 -612h-200l473 604l-2 4q-43 -23 -99.5 -33t-101.5 -10q-94 0 -170 33t-126 93.5t-71.5 143.5t-7.5 185zM399 1020 q-10 -72 6.5 -128t53.5 -96t91 -61.5t120 -21.5t126 21.5t107 61.5t80 96t43 128q10 70 -6 127t-53 97t-91.5 61.5t-119.5 21.5q-66 0 -126.5 -21.5t-107.5 -61.5t-79.5 -97t-43.5 -127z" />
<glyph unicode=":" horiz-adv-x="569" d="M178 111q6 51 47 86.5t92 35.5t82 -35.5t25 -86.5q-8 -51 -51 -87t-90 -36t-80 35.5t-25 87.5zM283 860q8 51 48 87t91 36t83 -36t23 -87q-8 -51 -50 -87t-89 -36t-81 36t-25 87z" />
<glyph unicode=";" horiz-adv-x="569" d="M68 -283l206 492h187l-236 -492h-157zM283 860q8 51 48 87t91 36t83 -36t23 -87q-8 -51 -50 -87t-89 -36t-81 36t-25 87z" />
<glyph unicode="&#x3c;" horiz-adv-x="1363" d="M227 561l17 119l1134 475l-18 -135l-959 -399l846 -400l-18 -135z" />
<glyph unicode="=" horiz-adv-x="1363" d="M203 393l18 135h1069l-18 -135h-1069zM248 713l18 135h1069l-18 -135h-1069z" />
<glyph unicode="&#x3e;" horiz-adv-x="1363" d="M160 86l18 135l961 400l-848 399l18 135l1004 -475l-17 -119z" />
<glyph unicode="?" horiz-adv-x="987" d="M215 1137q25 84 73 149.5t111.5 109.5t140 67.5t160.5 23.5t154 -23.5t117 -69.5t68.5 -115t9.5 -157q-10 -68 -37 -122t-65 -100t-87 -88t-100 -85q-37 -31 -59.5 -53.5t-37 -47t-21.5 -54t-13 -72.5l-13 -94h-172l19 129q8 57 20.5 94t33 66.5t51 58t77.5 69.5 q35 33 71 65t66.5 66.5t53 73.5t28.5 88q14 98 -35 160.5t-151 62.5q-104 0 -178 -61t-103 -162zM367 111q6 51 47 86.5t92 35.5t81.5 -35.5t24.5 -86.5q-8 -51 -51 -87t-90 -36t-80 35.5t-24 87.5z" />
<glyph unicode="@" horiz-adv-x="1638" d="M193 725q23 160 102.5 299t197 241.5t266 162t306.5 59.5q141 0 260 -46t202 -129t122 -199t20 -253q-18 -133 -81.5 -241.5t-146.5 -186.5t-173 -121t-162 -43q-53 0 -86 33t-25 102h-4q-55 -55 -119.5 -95t-156.5 -40q-66 0 -115 24.5t-81 67.5t-45 100.5t-3 125.5 q14 106 63.5 210.5t123 186.5t169 132t203.5 50q72 0 127 -37.5t76 -130.5h4l55 129h133l-251 -579q-12 -25 -21.5 -52.5t-13.5 -50.5q-2 -41 45 -41q49 0 105.5 38t106.5 100.5t87 142.5t49 166q16 121 -16.5 218t-101 166t-164 105.5t-201.5 36.5q-133 0 -255 -52 t-219.5 -141t-163 -208t-83.5 -250q-18 -137 15.5 -256t107 -207t181 -138t234.5 -50q76 0 153 17.5t149.5 50t136 78.5t112.5 102h129q-61 -84 -140 -151t-169 -113t-188.5 -70.5t-198.5 -24.5q-162 0 -293 59.5t-219 163t-128 241.5t-17 298zM621 600q-12 -86 30.5 -141.5 t120.5 -55.5q68 0 131.5 44.5t115.5 110t87 141t43 139.5q6 39 -2 73.5t-27.5 61t-47.5 42t-60 15.5q-72 0 -138.5 -42t-120 -106.5t-89 -139t-43.5 -142.5z" />
<glyph unicode="A" horiz-adv-x="1441" d="M12 0l844 1450h162l412 -1450h-201l-99 356h-724l-199 -356h-195zM496 516h591l-186 713h-4z" />
<glyph unicode="B" horiz-adv-x="1290" d="M180 0l205 1450h442q90 0 174 -18.5t145 -60.5q62 -41 94 -109q22 -46 22 -107q0 -29 -5 -61q-16 -127 -96 -210t-203 -118l-2 -4q70 -6 125.5 -36t93 -77t53.5 -109q10 -39 11 -82q0 -26 -4 -52q-16 -121 -77.5 -199t-149.5 -124t-191.5 -64.5t-204.5 -18.5h-432z M375 160h291q63 0 127.5 13t119 43t91 78t47.5 118q3 23 3 44q0 47 -16 83q-22 51 -66 81.5t-104.5 43t-126.5 12.5h-295zM469 836h238q61 0 121.5 8t110.5 33.5t86 71.5t46 122q2 19 2 36q-1 44 -15 74q-20 42 -60 66.5t-95 33.5t-112 9h-256z" />
<glyph unicode="C" horiz-adv-x="1441" d="M199 725q23 160 96.5 299t186 241.5t256 162t304.5 59.5q147 0 275.5 -53.5t204.5 -173.5l-164 -109q-53 88 -143.5 132t-194.5 44q-121 0 -229.5 -49t-193.5 -132t-141.5 -192.5t-72.5 -228.5q-7 -53 -8 -102q-1 -71 15 -135q26 -110 87.5 -190.5t155.5 -127.5t217 -47 q133 0 244.5 52t203.5 151l115 -109q-117 -131 -264.5 -192.5t-321.5 -61.5q-156 0 -282.5 57.5t-210.5 159t-121 240.5q-23 86 -23 182q0 59 9 123z" />
<glyph unicode="D" horiz-adv-x="1517" d="M154 0l204 1450h557q106 0 225.5 -38t213.5 -124t145 -224q34 -91 34 -210q0 -61 -9 -129q-29 -201 -119 -339t-209 -224t-249 -124t-236 -38h-557zM348 160h328q125 0 235.5 32.5t198.5 101t147.5 175t81.5 256.5q8 61 8 114q1 79 -17 142q-30 106 -98.5 175 t-169.5 101.5t-226 32.5h-328z" />
<glyph unicode="E" horiz-adv-x="1214" d="M180 0l205 1450h911l-22 -160h-739l-66 -454h690l-22 -160h-691l-71 -516h776l-23 -160h-948z" />
<glyph unicode="F" d="M180 0l205 1450h899l-22 -160h-727l-68 -479h676l-23 -160h-676l-92 -651h-172z" />
<glyph unicode="G" horiz-adv-x="1593" d="M199 725q25 172 104.5 312.5t199.5 239.5t269.5 154.5t312.5 55.5q143 0 270.5 -43t215.5 -148l-148 -135q-63 80 -162.5 123t-209.5 43q-125 0 -238 -45t-202 -125t-149.5 -190.5t-78.5 -241.5q-7 -51 -7 -99q0 -74 16 -140q28 -111 95.5 -192t172 -126t237.5 -45 q88 0 187.5 21.5t185.5 62.5l63 444h-334l23 160h506l-101 -713q-135 -70 -278 -102.5t-285 -32.5q-170 0 -303 55.5t-222 155.5t-127 240q-23 85 -23 181q0 63 10 130z" />
<glyph unicode="H" horiz-adv-x="1478" d="M180 0l205 1450h172l-88 -614h774l88 614h172l-205 -1450h-172l95 676h-775l-94 -676h-172z" />
<glyph unicode="I" horiz-adv-x="532" d="M180 0l205 1450h172l-205 -1450h-172z" />
<glyph unicode="J" horiz-adv-x="987" d="M45 274l176 35q4 -86 51 -136t140 -50q74 0 124 26.5t82.5 69.5t51 99.5t26.5 115.5l144 1016h172l-152 -1075q-10 -74 -42 -146.5t-89 -132t-141 -96.5t-201 -37q-154 0 -245 78t-97 233z" />
<glyph unicode="K" horiz-adv-x="1290" d="M180 0l205 1450h172l-88 -627h25l747 627h248l-811 -662l641 -788h-252l-586 737h-24l-105 -737h-172z" />
<glyph unicode="L" horiz-adv-x="1024" d="M180 0l205 1450h172l-182 -1290h663l-22 -160h-836z" />
<glyph unicode="M" horiz-adv-x="1857" d="M180 0l205 1450h256l332 -1137h4l655 1137h250l-205 -1450h-172l170 1217h-4l-690 -1217h-104l-351 1217h-4l-170 -1217h-172z" />
<glyph unicode="N" horiz-adv-x="1593" d="M180 0l205 1450h217l670 -1204h4l170 1204h172l-205 -1450h-217l-670 1204h-4l-170 -1204h-172z" />
<glyph unicode="O" horiz-adv-x="1708" d="M199 725q23 164 98.5 304t191 241.5t262 159t312.5 57.5t297 -57.5t217 -159t123 -241.5q23 -86 23 -182q0 -59 -9 -122q-23 -164 -99.5 -304t-191 -241.5t-262 -159t-313.5 -57.5t-296 57.5t-216 159t-123 241.5q-23 86 -23 182q0 59 9 122zM383 725q-7 -51 -7 -99 q0 -72 16 -136q26 -110 89.5 -191.5t162.5 -128.5t226 -47t240 47t200 129t144 191.5t76 234.5q7 51 7 99q1 72 -15 136q-26 110 -91 191.5t-164.5 128.5t-226.5 47t-239.5 -47t-199.5 -129t-143.5 -191.5t-74.5 -234.5z" />
<glyph unicode="P" horiz-adv-x="1214" d="M180 0l205 1450h430q100 0 189.5 -19.5t153.5 -65.5t94 -123q20 -51 20 -116q0 -34 -6 -73q-16 -119 -72.5 -197t-132.5 -123t-163 -63.5t-163 -18.5h-291l-92 -651h-172zM467 811h291q129 0 218 58.5t105 181.5q3 22 3 43q0 91 -58 138q-72 58 -201 58h-290z" />
<glyph unicode="Q" horiz-adv-x="1708" d="M201 743q23 158 98.5 294.5t189 235.5t258 156.5t304.5 57.5t287.5 -57.5t213.5 -156.5t124 -235q24 -87 24 -182q0 -55 -8 -113q-12 -92 -50 -183t-94.5 -170t-131.5 -141.5t-161 -96.5v-5h449l-21 -147h-841q-160 0 -288 57.5t-214 156.5t-124 236q-24 85 -24 178 q0 56 9 115zM385 743q-6 -45 -6 -88q0 -74 17 -141q28 -106 92.5 -185t159.5 -124t216 -45q119 0 228.5 45t195.5 124t144.5 185.5t74.5 228.5q6 46 6 89q0 72 -17 138q-26 107 -89.5 186t-159.5 125t-219 46t-231.5 -46t-194.5 -125t-143.5 -185.5t-73.5 -227.5z" />
<glyph unicode="R" horiz-adv-x="1251" d="M180 0l205 1450h371q104 0 206.5 -12.5t178.5 -53.5q77 -42 115 -120q26 -53 26 -133q0 -37 -6 -80q-23 -160 -132.5 -258.5t-283.5 -124.5l318 -668h-211l-301 651h-222l-92 -651h-172zM467 811h154q72 0 149.5 4t145 26.5t115.5 71t61 138.5q3 23 3 43q1 49 -17 82 q-24 47 -70.5 72.5t-107 33.5t-124.5 8h-241z" />
<glyph unicode="S" d="M100 164l166 121q35 -80 113 -121t172 -41q55 0 113.5 16.5t108.5 48t85 78.5t45 109q3 23 3 42q0 39 -11 67q-16 42 -59 73t-111 55.5t-160 57.5q-74 25 -135 56.5t-103 77.5q-43 46 -61 110q-11 39 -11 88q0 31 5 67q14 104 66.5 182t129 130.5t169 79t188.5 26.5 q123 0 219 -38t162 -132l-158 -123q-35 70 -101.5 101.5t-143.5 31.5q-57 0 -115 -14.5t-106 -43t-81.5 -75.5t-42.5 -111q-2 -19 -3 -36q1 -27 7 -51q10 -38 41 -68.5t85.5 -57t138.5 -53.5q80 -27 154.5 -57.5t128.5 -77.5q54 -48 80 -118q17 -46 17 -107q0 -33 -5 -70 q-16 -109 -70.5 -188.5t-132.5 -132t-174.5 -78t-194.5 -25.5q-63 0 -125.5 11.5t-118 35t-100.5 61.5t-74 93z" />
<glyph unicode="T" horiz-adv-x="1175" d="M205 1290l22 160h1131l-23 -160h-479l-182 -1290h-172l182 1290h-479z" />
<glyph unicode="U" horiz-adv-x="1441" d="M249 328q-6 48 -6 97q0 62 9 128l127 897h172l-123 -872q-8 -59 -8 -115q0 -28 2 -55q6 -82 40 -145.5t100.5 -101.5t174.5 -38q109 0 186.5 38t130 101.5t82 145t42.5 170.5l122 872h173l-127 -897q-16 -119 -61.5 -225.5t-122.5 -187.5t-187.5 -129t-259.5 -48 q-150 0 -247 48t-151.5 129.5t-67.5 187.5z" />
<glyph unicode="V" horiz-adv-x="1251" d="M186 1450h195l278 -1192h5l628 1192h183l-773 -1450h-165z" />
<glyph unicode="W" horiz-adv-x="1972" d="M217 1450h191l159 -1204h4l527 1204h192l185 -1204h4l506 1204h180l-631 -1450h-186l-187 1229h-4l-532 -1229h-189z" />
<glyph unicode="X" horiz-adv-x="1290" d="M-6 0l635 764l-389 686h221l311 -567l467 567h215l-586 -686l428 -764h-227l-340 643l-522 -643h-213z" />
<glyph unicode="Y" horiz-adv-x="1216" d="M186 1450h220l315 -655l512 655h207l-658 -825l-88 -625h-172l88 625z" />
<glyph unicode="Z" horiz-adv-x="1175" d="M59 0l23 154l997 1136h-825l22 160h1035l-23 -147l-997 -1143h848l-23 -160h-1057z" />
<glyph unicode="[" horiz-adv-x="530" d="M12 -319l256 1818h338l-18 -123h-191l-219 -1573h191l-19 -122h-338z" />
<glyph unicode="\" horiz-adv-x="757" d="M215 1487l135 49l395 -1573l-135 -51z" />
<glyph unicode="]" horiz-adv-x="530" d="M90 -319l19 122h190l219 1573h-190l18 123h338l-256 -1818h-338z" />
<glyph unicode="^" horiz-adv-x="1363" d="M244 563l581 887h123l332 -887h-152l-266 715l-467 -715h-151z" />
<glyph unicode="_" horiz-adv-x="1024" d="M-37 -256l14 102h1024l-14 -102h-1024z" />
<glyph unicode="`" horiz-adv-x="491" d="M154 1450h225l170 -295h-146z" />
<glyph unicode="a" horiz-adv-x="1062" d="M133 260q16 119 87 186.5t167 100.5t202.5 41t194.5 8h62l4 29q3 21 3 40q0 75 -44 117q-55 54 -168 54q-78 0 -155.5 -26t-143.5 -79l-86 105q86 76 191.5 111.5t209.5 35.5q213 -1 294 -101q60 -75 60 -206q0 -46 -7 -98l-60 -412q-4 -41 -7 -85q-2 -26 -2 -50 q0 -16 1 -31h-154q-2 15 -2 31q0 20 3 42q5 40 10 70h-5q-59 -74 -144 -121t-195 -47q-74 0 -135.5 18.5t-105.5 54.5t-64 89q-14 36 -14 79q0 21 3 44zM307 276q-2 -16 -2 -30q-1 -66 45 -98q56 -38 146 -37q70 0 125 23.5t96 62.5t65.5 91t34.5 111l10 62h-159 q-154 0 -250 -43t-111 -142z" />
<glyph unicode="b" horiz-adv-x="1251" d="M143 0l217 1548h160l-102 -729h4q78 78 170 121t196 43q113 0 201 -38t144.5 -105.5t80.5 -159.5q15 -58 14 -122q0 -38 -5 -79q-16 -109 -66.5 -201t-124.5 -159.5t-167 -105.5t-193 -38q-129 0 -218 56.5t-122 138.5h-4l-25 -170h-160zM371 479q-4 -32 -4 -61 q0 -42 8 -80q14 -64 52 -112t96.5 -75.5t135.5 -27.5q78 0 144.5 27.5t118 75.5t85 112.5t44.5 140.5q4 31 4 60q-1 43 -9 81q-14 64 -52 112t-97 76t-137 28t-144.5 -28t-116.5 -76t-84 -112.5t-44 -140.5z" />
<glyph unicode="c" horiz-adv-x="987" d="M164 479q14 109 63 201t124 159.5t171 105.5t207 38q106 0 196.5 -37t151.5 -115l-143 -112q-41 61 -97.5 89t-127.5 28q-80 0 -144.5 -28t-113 -77t-77 -113.5t-38.5 -138.5q-4 -32 -4 -63q0 -40 7 -76q13 -64 49 -113t91.5 -76.5t128.5 -27.5q158 0 262 119l103 -113 q-80 -80 -180.5 -117t-204.5 -37q-111 0 -197 37t-141 104.5t-79 159.5q-14 54 -14 115q0 42 7 88z" />
<glyph unicode="d" horiz-adv-x="1251" d="M164 479q14 109 64.5 201t125 159.5t173 105.5t210.5 38q104 0 185.5 -43t136.5 -121h4l102 729h160l-217 -1548h-160l25 170h-4q-57 -82 -163 -138.5t-235 -56.5q-100 0 -182 38t-137 105.5t-80 159.5q-15 55 -15 116q0 41 7 85zM336 479q-4 -32 -4 -61q0 -42 8 -80 q14 -64 52 -112t96.5 -75.5t136.5 -27.5t144.5 27.5t117.5 75.5t85 112.5t44 140.5q4 31 4 60q0 43 -8 81q-14 64 -52 112t-97.5 76t-137.5 28t-144.5 -28t-116.5 -76t-84 -112.5t-44 -140.5z" />
<glyph unicode="e" d="M164 479q14 111 64.5 204t125 159.5t169.5 103.5t202 37q100 0 180 -34t131 -99q50 -64 70 -157q11 -51 11 -110q0 -48 -7 -102l-6 -51h-774q-1 -12 -1 -24q0 -48 13 -94q16 -56 52 -98t87 -66.5t117 -24.5q104 0 182 37t144 108l108 -94q-100 -111 -209.5 -155 t-244.5 -44q-113 0 -197 40t-137.5 107.5t-73.5 159.5q-12 54 -12 113q0 41 6 84zM348 565h602q2 19 2 37q0 98 -56 160q-66 74 -198 74q-133 0 -225 -74t-125 -197z" />
<glyph unicode="f" horiz-adv-x="645" d="M141 823l19 135h209l30 216q12 88 39 160.5t74 125.5t116.5 83t166.5 30q31 0 63.5 -6t54.5 -19l-43 -143q-25 10 -50 15t-54 5q-61 0 -99 -21.5t-60.5 -59t-34 -91t-19.5 -114.5l-25 -181h234l-19 -135h-233l-117 -823h-160l117 823h-209z" />
<glyph unicode="g" horiz-adv-x="1251" d="M72 -309l133 131q63 -82 142 -124t190 -42q106 0 181 31.5t124 86t75.5 124t36.5 145.5l17 123h-4q-70 -92 -168.5 -135t-194.5 -43q-113 0 -202 36.5t-147 102.5t-83 156q-15 54 -15 113q0 40 7 83q16 117 65.5 211t126 158.5t175 99.5t212.5 35q49 0 97.5 -11t90.5 -35 t74.5 -59.5t51.5 -82.5h4l22 163h160l-129 -915q-37 -262 -190.5 -398.5t-407.5 -136.5q-141 0 -248.5 41t-195.5 142zM336 479q-4 -27 -4 -53q0 -44 11 -83q17 -62 57 -108.5t97.5 -73t127.5 -26.5q82 0 149.5 29t118.5 77t82 110.5t41 131.5q4 31 4 59q0 44 -10 84 q-15 64 -53.5 111t-98 73t-135.5 26t-141.5 -28t-116.5 -76t-85 -112.5t-44 -140.5z" />
<glyph unicode="h" d="M152 0l217 1548h159l-100 -723h4q20 29 53 56.5t75 50t93.5 37t106.5 14.5q94 0 159.5 -28.5t103.5 -80.5t49 -124q5 -35 5 -72q0 -41 -6 -86l-84 -592h-160l80 575q4 33 4 62q-1 78 -31 129q-42 70 -155 70q-156 0 -241 -102.5t-107 -266.5l-66 -467h-159z" />
<glyph unicode="i" horiz-adv-x="491" d="M166 0l135 958h160l-135 -958h-160zM315 1333q8 47 47 82t89 35q49 0 77 -35q22 -27 23 -62q0 -10 -2 -20q-6 -51 -44 -83.5t-89 -32.5q-51 1 -79 33q-23 27 -23 66q0 8 1 17z" />
<glyph unicode="j" horiz-adv-x="491" d="M-135 -471l37 139q39 -12 75 -12q45 0 75 16.5t49.5 44t28.5 64.5t15 78l156 1099h160l-166 -1173q-6 -37 -23.5 -85t-54.5 -90t-97.5 -72t-148.5 -30q-29 0 -55.5 4.5t-50.5 16.5zM315 1333q8 47 47 82t89 35q49 0 77 -35q23 -27 23 -62q0 -10 -2 -20q-6 -51 -44 -83.5 t-89 -32.5t-79 33q-23 26 -23 66q0 8 1 17z" />
<glyph unicode="k" horiz-adv-x="1024" d="M152 0l217 1548h159l-141 -1011l496 421h227l-524 -436l436 -522h-236l-403 504l-72 -504h-159z" />
<glyph unicode="l" horiz-adv-x="491" d="M166 0l217 1548h160l-217 -1548h-160z" />
<glyph unicode="m" horiz-adv-x="1744" d="M152 0l102 731q10 66 13 123t12 104h151q-6 -39 -9 -77.5t-9 -79.5h4q20 35 54 67.5t79 58t98 41t113 15.5q78 0 128 -19.5t80.5 -47t46 -59.5t23.5 -56q66 86 141.5 134t186.5 48q102 0 169 -27.5t101 -79.5q36 -54 44 -128q3 -29 3 -61q0 -49 -8 -105l-82 -582h-159 l79 573q4 33 4 65q0 16 -1 32q-3 48 -24.5 84.5t-63.5 59t-111 22.5q-51 0 -98.5 -20.5t-86 -57.5t-66.5 -89.5t-36 -115.5l-78 -553h-159l75 543q9 65 9 114q0 73 -20 113q-34 66 -132 66q-156 0 -241 -102.5t-107 -266.5l-66 -467h-159z" />
<glyph unicode="n" d="M152 0l102 731q10 66 13 123t12 104h151q-6 -39 -9 -77.5t-9 -79.5h4q20 35 54 67.5t79 58t98 41t113 15.5q94 0 159.5 -28.5t103.5 -80.5t49 -124q5 -35 5 -72q0 -41 -6 -86l-84 -592h-160l80 575q4 33 4 62q-1 78 -31 129q-42 70 -155 70q-156 0 -241 -102.5 t-107 -266.5l-66 -467h-159z" />
<glyph unicode="o" horiz-adv-x="1216" d="M164 479q14 113 66.5 205t129 158.5t176 103.5t209.5 37q111 0 200 -37t147 -104q58 -66 84 -158q16 -59 17 -128q0 -37 -5 -77q-16 -113 -67.5 -205t-129.5 -158.5t-177 -103.5t-210 -37t-200 37t-147 104q-57 66 -83 158q-16 57 -16 121q0 40 6 84zM336 479 q-4 -32 -4 -61q0 -42 8 -80q14 -64 52 -112t96.5 -75.5t136.5 -27.5t144.5 27.5t117.5 75.5t85 112.5t44 140.5q4 31 4 60q0 43 -8 81q-14 64 -52 112t-97.5 76t-137.5 28t-144.5 -28t-116.5 -76t-84 -112.5t-44 -140.5z" />
<glyph unicode="p" horiz-adv-x="1251" d="M78 -467l201 1425h159l-20 -139h4q78 78 170 121t196 43q113 0 201 -38t144.5 -105.5t80.5 -159.5q14 -58 14 -122q0 -38 -5 -79q-16 -109 -66.5 -201t-124.5 -159.5t-167 -105.5t-193 -38q-129 0 -218 56.5t-122 138.5h-4l-90 -637h-160zM371 479q-4 -32 -4 -61 q0 -42 8 -80q14 -64 52 -112t96.5 -75.5t135.5 -27.5q78 0 144.5 27.5t118 75.5t85 112.5t44.5 140.5q4 31 4 60q0 42 -9 81q-14 64 -52 112t-97 76t-137 28t-144.5 -28t-116.5 -76t-84 -112.5t-44 -140.5z" />
<glyph unicode="q" horiz-adv-x="1251" d="M164 479q14 106 64.5 198.5t124 160t166.5 106.5t194 39q129 0 219 -56.5t123 -138.5h4l24 170h160l-201 -1425h-159l86 606h-4q-78 -78 -171.5 -121t-197.5 -43q-113 0 -200 38t-144 105.5t-81 159.5q-14 55 -14 114q0 42 7 87zM336 479q-4 -32 -4 -61q0 -42 8 -80 q14 -64 52 -112t96.5 -75.5t136.5 -27.5t144.5 27.5t117.5 75.5t85 112.5t44 140.5q4 31 4 60q0 42 -8 81q-15 64 -52.5 112t-97 76t-137.5 28t-144.5 -28t-116.5 -76t-84 -112.5t-44 -140.5z" />
<glyph unicode="r" horiz-adv-x="720" d="M152 0l102 731q10 66 13 123t12 104h151q-6 -39 -9 -77.5t-9 -79.5h4q20 35 54 67.5t79 58t98 41t113 15.5q16 0 32.5 -2t32.5 -8l-32 -162q-41 12 -84 12q-147 0 -228.5 -95t-103.5 -261l-66 -467h-159z" />
<glyph unicode="s" horiz-adv-x="872" d="M68 154l139 98q41 -59 91 -94t136 -35q37 0 76 8t71.5 26.5t56.5 46t30 66.5q2 11 2 22q0 26 -10 42q-14 24 -41 41.5t-63 28t-73 18.5q-66 14 -125 32.5t-101 47.5q-43 30 -63 78q-14 32 -13 75q0 21 3 45q10 70 48 123.5t93.5 88t122 53t134.5 18.5q102 0 184 -41 t119 -133l-148 -88q-23 51 -68.5 83t-117.5 32q-33 0 -67.5 -8.5t-64.5 -25t-50.5 -42t-24.5 -58.5q-4 -31 13.5 -52t48 -37.5t72.5 -29t89 -20.5q61 -12 115.5 -31.5t92.5 -52.5q39 -33 57 -82q12 -32 12 -73q0 -22 -4 -48q-12 -82 -53.5 -139t-100.5 -93t-130 -52.5 t-142 -16.5q-123 0 -207 38t-139 141z" />
<glyph unicode="t" horiz-adv-x="720" d="M141 823l19 135h209l37 273h159l-37 -273h283l-18 -135h-283l-68 -479q-6 -47 -10 -87q-1 -12 -1 -24q0 -25 6 -45q9 -30 36 -47.5t80 -17.5q35 0 74 8t73 25l-14 -146q-45 -18 -96 -26.5t-96 -8.5q-86 0 -134.5 22.5t-71 63.5t-23.5 101v12q0 56 9 123l76 526h-209z" />
<glyph unicode="u" d="M202 208q-5 34 -6 71q0 42 7 88l84 591h159l-81 -575q-4 -33 -4 -62q1 -79 31 -129q42 -70 155 -69q156 0 241.5 102.5t108.5 266.5l66 466h159l-102 -731q-10 -66 -14.5 -123t-10.5 -104h-151q6 39 9 78t9 80h-4q-23 -35 -56.5 -68t-78.5 -58.5t-98.5 -41t-112.5 -15.5 q-94 0 -158.5 29t-102 80t-49.5 124z" />
<glyph unicode="v" horiz-adv-x="987" d="M156 958h186l193 -751h4l391 751h172l-514 -958h-176z" />
<glyph unicode="w" horiz-adv-x="1517" d="M164 958h176l115 -737h4l352 737h168l147 -737h4l322 737h172l-444 -958h-158l-168 737h-4l-346 -737h-164z" />
<glyph unicode="x" horiz-adv-x="1024" d="M6 0l465 516l-281 442h209l205 -344l289 344h194l-393 -442l324 -516h-211l-246 414l-356 -414h-199z" />
<glyph unicode="y" horiz-adv-x="987" d="M-25 -467l41 139q41 -16 109 -16q78 0 122 43t79 115l92 180l-262 964h186l190 -751h5l391 751h174l-629 -1177q-33 -61 -65.5 -111.5t-73.5 -86.5t-94.5 -55.5t-124.5 -19.5q-35 0 -72 4.5t-68 20.5z" />
<glyph unicode="z" horiz-adv-x="909" d="M61 0l19 125l661 698h-538l18 135h748l-19 -122l-661 -701h577l-18 -135h-787z" />
<glyph unicode="{" horiz-adv-x="681" d="M141 528l19 123q66 0 129 62.5t80 169.5l49 360q8 61 35.5 109.5t63.5 81t76 49t77 16.5h143l-18 -123h-111q-33 0 -54.5 -13t-34.5 -36.5t-21.5 -52.5t-12.5 -60l-49 -360q-10 -70 -38 -118t-60.5 -78.5t-64.5 -46t-50 -19.5l-2 -4q18 -2 46 -15.5t52.5 -43t37.5 -80 t3 -125.5l-49 -359q-4 -31 -5 -59.5t7 -51t25.5 -37t50.5 -14.5h110l-18 -122h-143q-39 0 -75 16t-62.5 49t-39 81t-1.5 110l49 358q8 55 -1.5 98t-31 74t-50 46t-61.5 15z" />
<glyph unicode="|" horiz-adv-x="753" d="M414 -567v2271h133v-2271h-133z" />
<glyph unicode="}" horiz-adv-x="681" d="M35 -319l18 122h111q33 0 54.5 14.5t34.5 37t21.5 51t12.5 59.5l49 359q10 76 38.5 126t61.5 79.5t63.5 43t49.5 15.5l2 4q-18 4 -46 19.5t-51.5 46t-38 78.5t-3.5 118l49 360q4 31 5 60t-7 52.5t-25.5 36.5t-50.5 13h-111l19 123h143q37 0 73 -16.5t62.5 -49t39 -80.5 t3.5 -110l-49 -360q-8 -53 1 -96.5t30.5 -73t50.5 -46t62 -16.5l-19 -123q-66 0 -129 -61t-80 -172l-49 -358q-10 -61 -35.5 -109.5t-61.5 -81.5t-76 -49t-79 -16h-143z" />
<glyph unicode="~" horiz-adv-x="1363" d="M293 578q27 33 56.5 64.5t63 57t73.5 42t87 16.5q55 0 104.5 -19.5t96.5 -42.5q53 -27 105.5 -52.5t117.5 -25.5q33 0 61.5 12.5t52.5 33t44.5 46t36.5 52.5l55 -98q-29 -33 -58.5 -65t-64 -57.5t-74.5 -42t-87 -16.5q-55 0 -104.5 19.5t-96.5 42.5q-53 27 -105.5 52.5 t-117.5 25.5q-68 0 -114 -45.5t-79 -98.5z" />
<glyph unicode="&#xa1;" horiz-adv-x="569" d="M135 -455l146 1045h172l-146 -1045h-172zM287 885q6 51 49 87t90 36t80 -36t26 -87q-8 -51 -49 -87t-92 -36t-81.5 36t-22.5 87z" />
<glyph unicode="&#xa2;" d="M205 479q14 100 57 187.5t108.5 153t150.5 106.5t184 51l20 141h98l-20 -135q98 -4 179 -42t136 -110l-143 -112q-72 104 -193 117l-100 -713q135 8 229 119l103 -113q-74 -74 -164 -110.5t-188 -43.5l-19 -135h-98l18 135q-96 12 -168.5 54.5t-120 108t-66 152.5 t-3.5 189zM377 479q-18 -131 37 -228t172 -126l98 706q-133 -25 -211 -123t-96 -229z" />
<glyph unicode="&#xa3;" d="M117 0l22 160h221l72 516h-196l20 135h197l22 164q18 133 65.5 228t115 155.5t151.5 88.5t176 28t174 -31t137 -96l-129 -121q-41 47 -90 73.5t-117 26.5q-76 0 -130 -25.5t-91 -72.5t-58.5 -112.5t-31.5 -145.5l-22 -160h331l-20 -135h-332l-72 -516h504l-22 -160h-897z " />
<glyph unicode="&#xa4;" d="M100 303l127 113q-92 139 -67 309q25 180 153 311l-94 111l103 90l94 -109q76 53 158.5 81t168.5 28t161 -27.5t134 -81.5l127 109l78 -90l-127 -111q92 -133 68 -311q-25 -172 -154 -309l94 -113l-102 -90l-96 113q-74 -53 -157 -83t-169 -30t-160.5 29.5t-136.5 83.5 l-125 -113zM319 725q-10 -72 8.5 -137.5t59.5 -116.5t101.5 -81t132.5 -30t140 30t123.5 81t92.5 116.5t47 137.5q10 74 -8.5 140.5t-59.5 116.5t-101 79t-132 29t-140.5 -29t-124 -79t-92.5 -116.5t-47 -140.5z" />
<glyph unicode="&#xa5;" d="M205 1450h205l270 -670l459 670h204l-485 -670h234l-19 -123h-307l-23 -32l-20 -146h326l-19 -123h-325l-50 -356h-172l49 356h-325l18 123h326l20 146l-14 32h-307l18 123h234z" />
<glyph unicode="&#xa6;" horiz-adv-x="751" d="M414 -395v792h131v-792h-131zM414 739v795h131v-795h-131z" />
<glyph unicode="&#xa7;" d="M109 -43l167 74q16 -94 79 -136t155 -42q43 0 85 10t76 33.5t57.5 59.5t29.5 85q6 43 -9.5 74.5t-43 55.5t-60.5 41t-63 34l-232 131q-66 37 -95.5 102.5t-18.5 147.5q16 109 83.5 176t163.5 110q-66 41 -100.5 99.5t-24.5 142.5q12 82 54.5 144.5t104 103.5t135 62.5 t147.5 21.5q53 0 105 -11.5t96 -34t79 -59t51 -88.5l-165 -84q-16 68 -71.5 98.5t-121.5 30.5q-39 0 -79 -10t-73.5 -31.5t-57 -55.5t-30.5 -79q-14 -100 70 -147l186 -101q49 -25 100.5 -55.5t90.5 -70t60.5 -91t13.5 -120.5q-14 -94 -72.5 -162t-142.5 -111 q59 -43 88.5 -104.5t17.5 -147.5q-12 -88 -58 -153.5t-110.5 -108.5t-142.5 -64.5t-156 -21.5q-133 0 -234.5 60.5t-133.5 191.5zM399 653q-6 -41 6.5 -69.5t34 -51t51 -39t58.5 -30.5l170 -88q53 23 101 71t57 107q6 43 -8.5 76t-40 59.5t-57.5 46t-62 35.5l-111 59 q-31 -12 -64.5 -26.5t-61.5 -34.5t-47 -48t-26 -67z" />
<glyph unicode="&#xa8;" horiz-adv-x="491" d="M115 1290q6 45 42 78t83 33t74.5 -33t21.5 -78q-8 -47 -44 -78.5t-83 -31.5t-75 31.5t-19 78.5zM520 1290q6 45 42 78t83 33t75 -33t21 -78q-8 -47 -43.5 -78.5t-83.5 -31.5q-47 0 -74.5 31.5t-19.5 78.5z" />
<glyph unicode="&#xa9;" horiz-adv-x="1638" d="M160 725q23 162 102.5 302t198.5 241.5t265 160t302 58.5t286 -58.5t220 -160t131 -241.5t18 -302q-23 -164 -103.5 -303t-199 -240.5t-265 -160t-302.5 -58.5t-286 58.5t-219 160t-130 240.5t-18 303zM295 725q-20 -139 11.5 -258t104 -206t180 -137t238.5 -50t252 50 t218.5 137t163 206t85.5 258q18 137 -13.5 257t-104 207t-180 137t-238.5 50t-253 -50t-218.5 -137t-162 -207t-83.5 -257zM498 725q14 100 56 186t108.5 147.5t155.5 96.5t194 35q145 0 240.5 -78t97.5 -231h-125q-4 86 -64.5 142t-163.5 56q-76 0 -138 -27.5t-109.5 -74.5 t-77 -111.5t-39.5 -140.5q-10 -72 3 -136.5t48 -113.5t89 -77.5t128 -28.5q102 0 178 59t105 150h127q-27 -74 -71 -133.5t-99.5 -100.5t-120 -63.5t-133.5 -22.5q-104 0 -183 36t-130.5 98.5t-71 147.5t-4.5 185z" />
<glyph unicode="&#xaa;" horiz-adv-x="690" d="M215 1049q10 72 55 110.5t105.5 57t126 22.5t116.5 4h48l4 29q4 29 -28 60.5t-107 31.5q-59 0 -113.5 -20.5t-79.5 -43.5l-51 86q53 45 121.5 67t136.5 22q147 0 201.5 -60.5t35.5 -183.5l-36 -262q-2 -23 -2 -44.5t-3 -43.5h-124q2 25 3 47t5 45h-4q-35 -57 -90.5 -81 t-128.5 -24q-94 0 -148.5 44t-42.5 137zM350 1051q-4 -35 26 -53.5t81 -18.5q84 0 134 43t56 88l6 35h-98q-25 0 -57.5 -1t-63.5 -10.5t-54.5 -29t-29.5 -53.5z" />
<glyph unicode="&#xab;" horiz-adv-x="1024" d="M188 492l355 438l102 -74l-291 -364l189 -365l-123 -74zM569 492l355 438l102 -74l-291 -364l189 -365l-123 -74z" />
<glyph unicode="&#xac;" horiz-adv-x="1363" d="M248 713l18 135h1069l-80 -569h-135l62 434h-934z" />
<glyph unicode="&#xad;" horiz-adv-x="681" d="M150 418l20 147h502l-21 -147h-501z" />
<glyph unicode="&#xae;" horiz-adv-x="1638" d="M160 725q23 162 102.5 302t198.5 241.5t265 160t302 58.5t286 -58.5t220 -160t131 -241.5t18 -302q-23 -164 -103.5 -303t-199 -240.5t-265 -160t-302.5 -58.5t-286 58.5t-219 160t-130 240.5t-18 303zM295 725q-20 -139 11.5 -258t104 -206t180 -137t238.5 -50t252 50 t218.5 137t163 206t85.5 258q18 137 -13.5 257t-104 207t-180 137t-238.5 50t-253 -50t-218.5 -137t-162 -207t-83.5 -257zM567 281l125 890h336q313 0 277 -253q-8 -61 -33 -104.5t-60.5 -73t-81 -45t-96.5 -21.5l201 -393h-145l-187 383h-145l-56 -383h-135zM772 774h139 q45 0 88 3t79 17.5t60.5 45t30.5 84.5q6 45 -7 72.5t-39.5 42t-61.5 18.5t-70 4h-178z" />
<glyph unicode="&#xaf;" horiz-adv-x="491" d="M135 1229l19 123h565l-19 -123h-565z" />
<glyph unicode="&#xb0;" horiz-adv-x="819" d="M283 1182q8 61 38.5 114.5t75.5 93.5t101.5 62.5t117.5 22.5t111.5 -22.5t84.5 -62.5t49.5 -93.5t6.5 -114.5q-8 -61 -38.5 -114.5t-75.5 -93.5t-101.5 -62.5t-117.5 -22.5t-111.5 22.5t-84.5 62.5t-49 93.5t-7 114.5zM393 1182q-4 -31 4.5 -64t28.5 -59.5t52 -43 t73 -16.5t77 16.5t63.5 43t45 59.5t21.5 64t-4.5 63.5t-28.5 59t-51 43t-72 16.5t-77 -16.5t-63.5 -43t-46 -59t-22.5 -63.5z" />
<glyph unicode="&#xb1;" horiz-adv-x="1363" d="M160 86l18 135h1069l-18 -135h-1069zM242 676l20 135h467l47 344h135l-47 -344h467l-20 -135h-467l-47 -344h-135l47 344h-467z" />
<glyph unicode="&#xb2;" horiz-adv-x="739" d="M150 592l16 119l387 309q66 51 102.5 92t46.5 107q10 68 -28.5 106.5t-98.5 38.5q-66 0 -116.5 -37t-73.5 -100l-127 10q35 123 124 180.5t204 57.5q57 0 107 -15.5t86 -47.5t51.5 -80t7.5 -113q-8 -53 -29 -94.5t-51.5 -77t-68.5 -66.5t-77 -61l-276 -213v-5h436 l-14 -110h-608z" />
<glyph unicode="&#xb3;" horiz-adv-x="739" d="M172 768l117 47q4 -20 16 -42.5t32.5 -41t50.5 -30t73 -11.5q33 0 66.5 9.5t61 26.5t46 44t22.5 64q6 49 -10 79.5t-46 48t-67.5 23.5t-74.5 6h-33l16 111h35q25 0 58.5 5t64.5 19.5t54.5 42t29.5 74.5q10 66 -29 93.5t-98 27.5q-53 0 -100 -18.5t-78 -67.5l-107 51 q49 78 128 112t171 34q55 0 104.5 -14.5t84.5 -43t52 -71.5t9 -99q-10 -68 -63 -123t-127 -75v-5q90 -12 131 -73.5t31 -143.5q-8 -61 -40 -107t-79 -77t-105.5 -47t-122.5 -16q-106 0 -181 42t-93 146z" />
<glyph unicode="&#xb4;" horiz-adv-x="491" d="M266 1155l256 295h226l-336 -295h-146z" />
<glyph unicode="&#xb5;" d="M86 -467l201 1425h159l-81 -575q-16 -121 26.5 -190.5t155.5 -69.5q156 0 241.5 102.5t108.5 266.5l66 466h159l-102 -731q-10 -66 -14.5 -123t-10.5 -104h-151q6 39 9 78t9 80h-4q-23 -35 -56.5 -68t-78.5 -58.5t-98.5 -41t-112.5 -15.5q-66 0 -110 11.5t-87 40.5 l-69 -494h-160z" />
<glyph unicode="&#xb6;" horiz-adv-x="1228" d="M315 1028q29 201 169.5 311.5t357.5 110.5h497l-241 -1708h-148l221 1573h-241l-221 -1573h-148l127 905q-94 0 -168 30t-123 81t-71.5 120.5t-10.5 149.5z" />
<glyph unicode="&#xb7;" horiz-adv-x="569" d="M250 633q8 51 49 87t92 36t82 -36t23 -87q-6 -51 -49.5 -87t-90.5 -36t-79.5 36t-26.5 87z" />
<glyph unicode="&#xb8;" horiz-adv-x="491" d="M-33 -401l47 75q66 -33 142 -32q20 0 42.5 4t42 13t34 25.5t18.5 41.5q6 43 -27 60t-67 17q-20 0 -42 -5t-42 -11l-35 39l151 174h93l-111 -131q14 2 31.5 5t42.5 3q27 0 54.5 -8t49 -25.5t33.5 -44t6 -63.5q-6 -49 -32.5 -84t-64.5 -56.5t-82 -30.5t-85 -9 q-53 0 -104.5 10t-94.5 33z" />
<glyph unicode="&#xb9;" horiz-adv-x="739" d="M295 1272l280 190h119l-121 -870h-135l101 721h-4l-185 -135z" />
<glyph unicode="&#xba;" horiz-adv-x="790" d="M227 1174q8 68 41 123t83 95t114.5 61.5t136.5 21.5t130.5 -21.5t97 -61.5t56 -95.5t9.5 -122.5q-10 -70 -43 -126.5t-83 -96.5t-114.5 -61.5t-136.5 -21.5t-130 21.5t-97 61.5t-56.5 96.5t-7.5 126.5zM362 1174q-10 -78 34 -136.5t136 -58.5q45 0 85 16.5t70 43 t48.5 62.5t24.5 73q4 37 -5.5 70.5t-31 60t-56 43t-79.5 16.5q-47 0 -86 -16.5t-69 -43t-48.5 -60t-22.5 -70.5z" />
<glyph unicode="&#xbb;" horiz-adv-x="1024" d="M137 127l291 365l-188 364l122 74l232 -438l-354 -439zM518 127l291 365l-188 364l122 74l232 -438l-354 -439z" />
<glyph unicode="&#xbc;" horiz-adv-x="1708" d="M258 1272l281 190h118l-120 -870h-136l101 723h-4l-185 -137zM305 0l1122 1516l105 -66l-1122 -1516zM1006 184l18 129l453 557h159l-82 -575h115l-14 -111h-115l-27 -184h-135l27 184h-399zM1143 295h276l60 416h-4z" />
<glyph unicode="&#xbd;" horiz-adv-x="1708" d="M246 1272l280 190h119l-121 -870h-135l100 723h-4l-184 -137zM270 0l1123 1516l104 -66l-1122 -1516zM1032 0l17 119l387 309q66 51 102.5 92t46.5 107q10 68 -28.5 106.5t-98.5 38.5q-66 0 -117 -37t-71 -100l-129 10q37 123 126 180.5t203 57.5q57 0 107.5 -15.5 t85.5 -47.5t50.5 -80t6.5 -113q-8 -53 -28.5 -94t-51 -77t-68.5 -67t-77 -61l-274 -213v-4h436l-17 -111h-608z" />
<glyph unicode="&#xbe;" horiz-adv-x="1708" d="M160 768l119 47q4 -20 16 -42.5t32.5 -41t50.5 -30t73 -11.5q33 0 66.5 9.5t61 26.5t46 44t22.5 64q6 49 -10 79.5t-46 48t-68 23.5t-74 6h-33l16 111h33q27 0 60.5 5t64.5 19.5t54.5 42t29.5 74.5q10 66 -29 93.5t-98 27.5q-53 0 -100.5 -18.5t-77.5 -67.5l-107 51 q49 78 128 112t171 34q55 0 104.5 -14.5t84 -43t52 -71.5t9.5 -99q-10 -68 -63.5 -123t-126.5 -75v-5q90 -12 131 -73.5t30 -143.5q-8 -61 -39.5 -107t-79 -77t-105.5 -47t-122 -16q-106 0 -181 42t-95 146zM385 0l1122 1516l105 -66l-1123 -1516zM1034 184l19 129l452 557 h160l-82 -575h115l-15 -111h-114l-27 -184h-135l27 184h-400zM1171 295h277l59 416h-4l-329 -412z" />
<glyph unicode="&#xbf;" horiz-adv-x="987" d="M78 -127q10 68 36.5 122t65.5 100t87 88t100 85q37 31 59.5 53.5t36.5 47t21.5 54.5t13.5 73l12 94h172l-16 -129q-8 -57 -20.5 -94t-34 -67t-52.5 -59.5t-76 -68.5q-37 -33 -72.5 -64.5t-66.5 -66.5t-52.5 -74t-27.5 -88q-14 -98 34 -160.5t151 -62.5q104 0 178.5 61.5 t103.5 161.5l180 -20q-25 -84 -72.5 -149.5t-111 -109.5t-140.5 -68t-161 -24t-153.5 24t-116.5 70t-68.5 114.5t-9.5 156.5zM516 885q6 51 49 87t90 36t80 -36t27 -87q-8 -51 -49 -87t-92 -36t-82 36t-23 87z" />
<glyph unicode="&#xc0;" horiz-adv-x="1441" d="M12 0l844 1450h162l412 -1450h-201l-99 356h-724l-199 -356h-195zM496 516h591l-186 713h-4zM684 1847h225l172 -295h-145z" />
<glyph unicode="&#xc1;" horiz-adv-x="1441" d="M12 0l844 1450h162l412 -1450h-201l-99 356h-724l-199 -356h-195zM496 516h591l-186 713h-4zM799 1552l254 295h225l-334 -295h-145z" />
<glyph unicode="&#xc2;" horiz-adv-x="1441" d="M12 0l844 1450h162l412 -1450h-201l-99 356h-724l-199 -356h-195zM496 516h591l-186 713h-4zM618 1552l269 295h186l189 -295h-166l-133 209l-189 -209h-156z" />
<glyph unicode="&#xc3;" horiz-adv-x="1441" d="M12 0l844 1450h162l412 -1450h-201l-99 356h-724l-199 -356h-195zM496 516h591l-186 713h-4zM600 1577q12 39 33.5 78t51.5 68.5t68 48t83 18.5q47 0 86 -15.5t79 -31.5q29 -12 50.5 -23.5t54.5 -11.5q41 0 67.5 26.5t43.5 63.5h98q-12 -39 -30.5 -77t-45.5 -68.5 t-62.5 -49t-80.5 -18.5q-43 0 -84 13.5t-76 29.5q-29 12 -62.5 25.5t-68.5 13.5q-39 0 -65.5 -27.5t-41.5 -62.5h-98z" />
<glyph unicode="&#xc4;" horiz-adv-x="1441" d="M12 0l844 1450h162l412 -1450h-201l-99 356h-724l-199 -356h-195zM496 516h591l-186 713h-4zM645 1688q6 45 42 77.5t83 32.5t74.5 -32.5t21.5 -77.5q-6 -47 -43 -79t-84 -32t-73.5 31.5t-20.5 79.5zM1051 1688q6 45 42 77.5t83 32.5t74.5 -32.5t21.5 -77.5 q-6 -47 -43 -79t-84 -32t-74 31.5t-20 79.5z" />
<glyph unicode="&#xc5;" horiz-adv-x="1441" d="M12 0l844 1450h162l412 -1450h-201l-99 356h-724l-199 -356h-195zM496 516h591l-186 713h-4zM758 1698q6 41 25.5 77.5t50 64.5t70.5 44.5t83 16.5q90 0 138.5 -60.5t37.5 -142.5q-6 -41 -26.5 -78t-51 -64.5t-70.5 -44t-83 -16.5q-88 0 -137 59.5t-37 143.5zM844 1698 q-8 -51 23.5 -84t76.5 -33t85 33t48 84q6 49 -24.5 83t-75.5 34t-86 -34t-47 -83z" />
<glyph unicode="&#xc6;" horiz-adv-x="1933" d="M-20 0l1146 1450h891l-22 -160h-602l-66 -454h565l-22 -160h-565l-72 -516h627l-23 -160h-799l56 393h-600l-308 -393h-206zM618 553h498l105 737h-25z" />
<glyph unicode="&#xc7;" horiz-adv-x="1441" d="M199 725q23 160 96.5 299t186 241.5t256 162t304.5 59.5q147 0 275.5 -53.5t204.5 -173.5l-164 -109q-53 88 -143.5 132t-194.5 44q-121 0 -229.5 -49t-193.5 -132t-141.5 -192.5t-72.5 -228.5q-18 -127 7.5 -236.5t87 -190.5t155.5 -128t217 -47q133 0 244.5 52 t203.5 151l115 -109q-117 -131 -264.5 -192.5t-321.5 -61.5l-77 -94q14 2 31.5 5t41.5 3q27 0 54.5 -8t49 -25.5t34 -44t6.5 -63.5q-6 -49 -33 -84t-65 -56.5t-82 -30.5t-85 -9q-53 0 -104 10t-94 33l47 75q66 -33 141 -32q20 0 43 4t42.5 13t33.5 25.5t18 41.5 q6 43 -26.5 60t-67.5 17q-20 0 -41.5 -5t-42.5 -11l-35 39l125 143q-137 14 -246.5 77t-182 162t-104.5 231t-9 286z" />
<glyph unicode="&#xc8;" horiz-adv-x="1214" d="M180 0l205 1450h911l-22 -160h-739l-66 -454h690l-22 -160h-691l-71 -516h776l-23 -160h-948zM571 1847h226l172 -295h-146z" />
<glyph unicode="&#xc9;" horiz-adv-x="1214" d="M180 0l205 1450h911l-22 -160h-739l-66 -454h690l-22 -160h-691l-71 -516h776l-23 -160h-948zM686 1552l254 295h225l-334 -295h-145z" />
<glyph unicode="&#xca;" horiz-adv-x="1214" d="M180 0l205 1450h911l-22 -160h-739l-66 -454h690l-22 -160h-691l-71 -516h776l-23 -160h-948zM506 1552l268 295h187l188 -295h-166l-133 209l-188 -209h-156z" />
<glyph unicode="&#xcb;" horiz-adv-x="1214" d="M180 0l205 1450h911l-22 -160h-739l-66 -454h690l-22 -160h-691l-71 -516h776l-23 -160h-948zM532 1688q6 45 42 77.5t83 32.5t75 -32.5t22 -77.5q-6 -47 -43 -79t-84 -32t-74 31.5t-21 79.5zM938 1688q6 45 42 77.5t83 32.5t74.5 -32.5t21.5 -77.5q-6 -47 -43 -79 t-84 -32t-73.5 31.5t-20.5 79.5z" />
<glyph unicode="&#xcc;" horiz-adv-x="532" d="M180 0l205 1450h172l-205 -1450h-172zM229 1847h226l172 -295h-146z" />
<glyph unicode="&#xcd;" horiz-adv-x="532" d="M180 0l205 1450h172l-205 -1450h-172zM344 1552l254 295h225l-334 -295h-145z" />
<glyph unicode="&#xce;" horiz-adv-x="532" d="M164 1552l268 295h186l189 -295h-166l-133 209l-189 -209h-155zM180 0l205 1450h172l-205 -1450h-172z" />
<glyph unicode="&#xcf;" horiz-adv-x="532" d="M180 0l205 1450h172l-205 -1450h-172zM190 1688q6 45 42 77.5t83 32.5t75 -32.5t22 -77.5q-6 -47 -43 -79t-84 -32t-74 31.5t-21 79.5zM596 1688q6 45 42 77.5t83 32.5t74.5 -32.5t21.5 -77.5q-6 -47 -43 -79t-84 -32t-73.5 31.5t-20.5 79.5z" />
<glyph unicode="&#xd0;" horiz-adv-x="1517" d="M102 688l21 135h147l88 627h557q106 0 225.5 -38t213.5 -124t145 -224t25 -339q-29 -201 -119 -339t-209 -224t-249 -124t-236 -38h-557l96 688h-148zM348 160h328q125 0 235.5 32.5t198.5 101t147.5 175t81.5 256.5q20 150 -9.5 256t-98 175t-169.5 101.5t-226 32.5 h-328l-66 -467h516l-20 -135h-516z" />
<glyph unicode="&#xd1;" horiz-adv-x="1593" d="M180 0l205 1450h217l670 -1204h4l170 1204h172l-205 -1450h-217l-670 1204h-4l-170 -1204h-172zM676 1577q12 39 33.5 78t51.5 68.5t67.5 48t82.5 18.5q47 0 86 -15.5t80 -31.5q29 -12 50.5 -23.5t54.5 -11.5q41 0 67.5 26.5t42.5 63.5h99q-12 -39 -31 -77t-45.5 -68.5 t-62 -49t-81.5 -18.5q-43 0 -83.5 13.5t-75.5 29.5q-29 12 -63 25.5t-68 13.5q-39 0 -66 -27.5t-41 -62.5h-98z" />
<glyph unicode="&#xd2;" horiz-adv-x="1708" d="M199 725q23 164 98.5 304t191 241.5t262 159t312.5 57.5t297 -57.5t217 -159t123 -241.5t14 -304t-99.5 -304t-191 -241.5t-262 -159t-313.5 -57.5t-296 57.5t-216 159t-123 241.5t-14 304zM383 725q-18 -125 8.5 -234.5t90 -191.5t162.5 -129t226 -47t240 47t200 129 t144 191.5t76 234.5q18 125 -8.5 234.5t-91 191.5t-164 129t-226.5 47t-239.5 -47t-199.5 -129t-143.5 -191.5t-74.5 -234.5zM817 1847h225l172 -295h-145z" />
<glyph unicode="&#xd3;" horiz-adv-x="1708" d="M199 725q23 164 98.5 304t191 241.5t262 159t312.5 57.5t297 -57.5t217 -159t123 -241.5t14 -304t-99.5 -304t-191 -241.5t-262 -159t-313.5 -57.5t-296 57.5t-216 159t-123 241.5t-14 304zM383 725q-18 -125 8.5 -234.5t90 -191.5t162.5 -129t226 -47t240 47t200 129 t144 191.5t76 234.5q18 125 -8.5 234.5t-91 191.5t-164 129t-226.5 47t-239.5 -47t-199.5 -129t-143.5 -191.5t-74.5 -234.5zM932 1552l254 295h225l-334 -295h-145z" />
<glyph unicode="&#xd4;" horiz-adv-x="1708" d="M199 725q23 164 98.5 304t191 241.5t262 159t312.5 57.5t297 -57.5t217 -159t123 -241.5t14 -304t-99.5 -304t-191 -241.5t-262 -159t-313.5 -57.5t-296 57.5t-216 159t-123 241.5t-14 304zM383 725q-18 -125 8.5 -234.5t90 -191.5t162.5 -129t226 -47t240 47t200 129 t144 191.5t76 234.5q18 125 -8.5 234.5t-91 191.5t-164 129t-226.5 47t-239.5 -47t-199.5 -129t-143.5 -191.5t-74.5 -234.5zM752 1552l268 295h186l189 -295h-166l-133 209l-189 -209h-155z" />
<glyph unicode="&#xd5;" horiz-adv-x="1708" d="M199 725q23 164 98.5 304t191 241.5t262 159t312.5 57.5t297 -57.5t217 -159t123 -241.5t14 -304t-99.5 -304t-191 -241.5t-262 -159t-313.5 -57.5t-296 57.5t-216 159t-123 241.5t-14 304zM383 725q-18 -125 8.5 -234.5t90 -191.5t162.5 -129t226 -47t240 47t200 129 t144 191.5t76 234.5q18 125 -8.5 234.5t-91 191.5t-164 129t-226.5 47t-239.5 -47t-199.5 -129t-143.5 -191.5t-74.5 -234.5zM733 1577q12 39 33.5 78t51.5 68.5t68 48t83 18.5q47 0 86 -15.5t80 -31.5q29 -12 50 -23.5t54 -11.5q41 0 67.5 26.5t43.5 63.5h98 q-12 -39 -30.5 -77t-45 -68.5t-62.5 -49t-81 -18.5q-43 0 -84 13.5t-76 29.5q-29 12 -62.5 25.5t-68.5 13.5q-39 0 -65.5 -27.5t-41.5 -62.5h-98z" />
<glyph unicode="&#xd6;" horiz-adv-x="1708" d="M199 725q23 164 98.5 304t191 241.5t262 159t312.5 57.5t297 -57.5t217 -159t123 -241.5t14 -304t-99.5 -304t-191 -241.5t-262 -159t-313.5 -57.5t-296 57.5t-216 159t-123 241.5t-14 304zM383 725q-18 -125 8.5 -234.5t90 -191.5t162.5 -129t226 -47t240 47t200 129 t144 191.5t76 234.5q18 125 -8.5 234.5t-91 191.5t-164 129t-226.5 47t-239.5 -47t-199.5 -129t-143.5 -191.5t-74.5 -234.5zM778 1688q6 45 42 77.5t83 32.5t75 -32.5t21 -77.5q-6 -47 -42.5 -79t-84.5 -32q-47 0 -73.5 31.5t-20.5 79.5zM1184 1688q6 45 42 77.5t83 32.5 t74.5 -32.5t21.5 -77.5q-6 -47 -43 -79t-84 -32t-73.5 31.5t-20.5 79.5z" />
<glyph unicode="&#xd7;" horiz-adv-x="1363" d="M219 223l453 398l-340 393l112 100l338 -395l451 395l86 -96l-453 -397l342 -394l-112 -100l-340 397l-451 -397z" />
<glyph unicode="&#xd8;" horiz-adv-x="1708" d="M127 23l190 180q-78 102 -109.5 234t-8.5 288q23 164 98.5 304t191 241.5t262 159t312.5 57.5q137 0 249.5 -40t198.5 -114l189 178l74 -77l-187 -177q80 -100 115 -236t12 -296q-23 -164 -99.5 -304t-191 -241.5t-262 -159t-313.5 -57.5q-143 0 -258 42t-201 120 l-192 -180zM383 725q-16 -113 3.5 -212t70.5 -177l921 870q-63 57 -148 89t-190 32q-127 0 -239.5 -47t-199.5 -129t-143.5 -191.5t-74.5 -234.5zM524 254q63 -61 150.5 -96t195.5 -35q127 0 240 47t200 129t144 191.5t76 234.5q16 117 -5.5 219.5t-76.5 181.5z" />
<glyph unicode="&#xd9;" horiz-adv-x="1441" d="M249 327.5q-13 106.5 3 225.5l127 897h172l-123 -872q-12 -88 -6 -170t40 -145.5t100.5 -101.5t174.5 -38q109 0 186.5 38t130 101.5t82 145t42.5 170.5l122 872h173l-127 -897q-16 -119 -61.5 -225.5t-122.5 -187.5t-187.5 -129t-259.5 -48q-150 0 -247 48t-151.5 129 t-67.5 187.5zM684 1847h225l172 -295h-145z" />
<glyph unicode="&#xda;" horiz-adv-x="1441" d="M249 327.5q-13 106.5 3 225.5l127 897h172l-123 -872q-12 -88 -6 -170t40 -145.5t100.5 -101.5t174.5 -38q109 0 186.5 38t130 101.5t82 145t42.5 170.5l122 872h173l-127 -897q-16 -119 -61.5 -225.5t-122.5 -187.5t-187.5 -129t-259.5 -48q-150 0 -247 48t-151.5 129 t-67.5 187.5zM799 1552l254 295h225l-334 -295h-145z" />
<glyph unicode="&#xdb;" horiz-adv-x="1441" d="M249 327.5q-13 106.5 3 225.5l127 897h172l-123 -872q-12 -88 -6 -170t40 -145.5t100.5 -101.5t174.5 -38q109 0 186.5 38t130 101.5t82 145t42.5 170.5l122 872h173l-127 -897q-16 -119 -61.5 -225.5t-122.5 -187.5t-187.5 -129t-259.5 -48q-150 0 -247 48t-151.5 129 t-67.5 187.5zM618 1552l269 295h186l189 -295h-166l-133 209l-189 -209h-156z" />
<glyph unicode="&#xdc;" horiz-adv-x="1441" d="M249 327.5q-13 106.5 3 225.5l127 897h172l-123 -872q-12 -88 -6 -170t40 -145.5t100.5 -101.5t174.5 -38q109 0 186.5 38t130 101.5t82 145t42.5 170.5l122 872h173l-127 -897q-16 -119 -61.5 -225.5t-122.5 -187.5t-187.5 -129t-259.5 -48q-150 0 -247 48t-151.5 129 t-67.5 187.5zM645 1688q6 45 42 77.5t83 32.5t74.5 -32.5t21.5 -77.5q-6 -47 -43 -79t-84 -32t-73.5 31.5t-20.5 79.5zM1051 1688q6 45 42 77.5t83 32.5t74.5 -32.5t21.5 -77.5q-6 -47 -43 -79t-84 -32t-74 31.5t-20 79.5z" />
<glyph unicode="&#xdd;" horiz-adv-x="1216" d="M186 1450h220l315 -655l512 655h207l-658 -825l-88 -625h-172l88 625zM686 1552l254 295h225l-334 -295h-145z" />
<glyph unicode="&#xde;" horiz-adv-x="1214" d="M180 0l205 1450h172l-37 -256h258q100 0 189.5 -19.5t153 -65.5t94 -123t16.5 -189q-16 -119 -72.5 -197t-133.5 -123t-164 -63.5t-163 -18.5h-290l-56 -395h-172zM430 555h291q129 0 218 58.5t108 181.5q16 123 -56.5 181t-202.5 58h-290z" />
<glyph unicode="&#xdf;" horiz-adv-x="1214" d="M152 0l155 1106q12 94 49 178t100.5 148.5t153.5 102.5t211 38q84 0 153.5 -24.5t118 -70.5t70 -114t8.5 -156q-16 -117 -85.5 -200.5t-184.5 -122.5l-2 -4q84 -8 144.5 -46t96.5 -97.5t48 -134.5t0 -157q-16 -109 -65.5 -195.5t-123 -148t-169 -94.5t-199.5 -33 q-33 0 -63.5 4.5t-59.5 14.5l20 145q25 -10 49.5 -13t53.5 -3q76 0 142.5 24.5t116.5 68.5t84 106.5t44 138.5q23 164 -65.5 256t-247.5 92h-48l19 135h45q111 0 191.5 65.5t97.5 180.5q14 111 -48.5 173t-168.5 62q-82 0 -139.5 -27.5t-96.5 -73.5t-61.5 -106.5 t-30.5 -125.5l-154 -1092h-159z" />
<glyph unicode="&#xe0;" horiz-adv-x="1062" d="M133 260q16 119 87 186.5t167 100.5t202.5 41t194.5 8h62l4 29q14 104 -41 157.5t-168 53.5q-78 0 -155.5 -26t-143.5 -79l-86 105q86 76 191.5 111.5t209.5 35.5q213 0 294 -100.5t53 -304.5l-60 -412q-4 -41 -7 -85t-1 -81h-154q-4 33 1 73t10 70h-5q-59 -74 -144 -121 t-195 -47q-74 0 -135.5 18.5t-105.5 54.5t-64.5 89t-10.5 123zM307 276q-12 -90 43.5 -127.5t145.5 -37.5q70 0 125 23.5t96 62.5t65.5 91t34.5 111l10 62h-159q-154 0 -250 -43t-111 -142zM444 1483h226l172 -295h-146z" />
<glyph unicode="&#xe1;" horiz-adv-x="1062" d="M133 260q16 119 87 186.5t167 100.5t202.5 41t194.5 8h62l4 29q14 104 -41 157.5t-168 53.5q-78 0 -155.5 -26t-143.5 -79l-86 105q86 76 191.5 111.5t209.5 35.5q213 0 294 -100.5t53 -304.5l-60 -412q-4 -41 -7 -85t-1 -81h-154q-4 33 1 73t10 70h-5q-59 -74 -144 -121 t-195 -47q-74 0 -135.5 18.5t-105.5 54.5t-64.5 89t-10.5 123zM307 276q-12 -90 43.5 -127.5t145.5 -37.5q70 0 125 23.5t96 62.5t65.5 91t34.5 111l10 62h-159q-154 0 -250 -43t-111 -142zM559 1188l254 295h225l-333 -295h-146z" />
<glyph unicode="&#xe2;" horiz-adv-x="1062" d="M133 260q16 119 87 186.5t167 100.5t202.5 41t194.5 8h62l4 29q14 104 -41 157.5t-168 53.5q-78 0 -155.5 -26t-143.5 -79l-86 105q86 76 191.5 111.5t209.5 35.5q213 0 294 -100.5t53 -304.5l-60 -412q-4 -41 -7 -85t-1 -81h-154q-4 33 1 73t10 70h-5q-59 -74 -144 -121 t-195 -47q-74 0 -135.5 18.5t-105.5 54.5t-64.5 89t-10.5 123zM307 276q-12 -90 43.5 -127.5t145.5 -37.5q70 0 125 23.5t96 62.5t65.5 91t34.5 111l10 62h-159q-154 0 -250 -43t-111 -142zM379 1188l268 295h187l188 -295h-166l-133 209l-188 -209h-156z" />
<glyph unicode="&#xe3;" horiz-adv-x="1062" d="M133 260q16 119 87 186.5t167 100.5t202.5 41t194.5 8h62l4 29q14 104 -41 157.5t-168 53.5q-78 0 -155.5 -26t-143.5 -79l-86 105q86 76 191.5 111.5t209.5 35.5q213 0 294 -100.5t53 -304.5l-60 -412q-4 -41 -7 -85t-1 -81h-154q-4 33 1 73t10 70h-5q-59 -74 -144 -121 t-195 -47q-74 0 -135.5 18.5t-105.5 54.5t-64.5 89t-10.5 123zM307 276q-12 -90 43.5 -127.5t145.5 -37.5q70 0 125 23.5t96 62.5t65.5 91t34.5 111l10 62h-159q-154 0 -250 -43t-111 -142zM360 1212q12 39 34 78t51.5 69t67.5 48t83 18q47 0 86 -15t80 -32 q29 -12 50.5 -23.5t53.5 -11.5q41 0 68 27t43 64h98q-12 -39 -30.5 -77t-45 -69t-62.5 -49t-81 -18q-43 0 -84 13t-76 30q-29 12 -62.5 25.5t-68.5 13.5q-39 0 -65.5 -28t-40.5 -63h-99z" />
<glyph unicode="&#xe4;" horiz-adv-x="1062" d="M133 260q16 119 87 186.5t167 100.5t202.5 41t194.5 8h62l4 29q14 104 -41 157.5t-168 53.5q-78 0 -155.5 -26t-143.5 -79l-86 105q86 76 191.5 111.5t209.5 35.5q213 0 294 -100.5t53 -304.5l-60 -412q-4 -41 -7 -85t-1 -81h-154q-4 33 1 73t10 70h-5q-59 -74 -144 -121 t-195 -47q-74 0 -135.5 18.5t-105.5 54.5t-64.5 89t-10.5 123zM307 276q-12 -90 43.5 -127.5t145.5 -37.5q70 0 125 23.5t96 62.5t65.5 91t34.5 111l10 62h-159q-154 0 -250 -43t-111 -142zM406 1323q6 45 41.5 78t82.5 33t75 -33t22 -78q-6 -47 -43 -79t-84 -32t-74 32 t-20 79zM811 1323q6 45 42 78t83 33t74.5 -33t21.5 -78q-6 -47 -43 -79t-84 -32t-73.5 32t-20.5 79z" />
<glyph unicode="&#xe5;" horiz-adv-x="1062" d="M133 260q16 119 87 186.5t167 100.5t202.5 41t194.5 8h62l4 29q14 104 -41 157.5t-168 53.5q-78 0 -155.5 -26t-143.5 -79l-86 105q86 76 191.5 111.5t209.5 35.5q213 0 294 -100.5t53 -304.5l-60 -412q-4 -41 -7 -85t-1 -81h-154q-4 33 1 73t10 70h-5q-59 -74 -144 -121 t-195 -47q-74 0 -135.5 18.5t-105.5 54.5t-64.5 89t-10.5 123zM307 276q-12 -90 43.5 -127.5t145.5 -37.5q70 0 125 23.5t96 62.5t65.5 91t34.5 111l10 62h-159q-154 0 -250 -43t-111 -142zM520 1354q6 41 26.5 77.5t51.5 64.5t71 44t83 16q90 0 137 -60t37 -142 q-6 -41 -26.5 -78t-51.5 -64.5t-71 -44t-83 -16.5q-88 0 -137 59.5t-37 143.5zM606 1354q-8 -51 24 -84t77 -33t84.5 33t48.5 84q6 49 -25 82.5t-76 33.5t-86 -33.5t-47 -82.5z" />
<glyph unicode="&#xe6;" horiz-adv-x="1744" d="M133 264q14 98 68.5 157.5t129.5 91.5t161 42t163 10h197l2 25q14 104 -35 175t-170 71q-88 0 -154.5 -24t-138.5 -71l-88 107q88 68 192.5 101.5t209.5 33.5q98 0 183 -36t126 -126q96 88 185 125t177 37q100 0 180.5 -34t131.5 -98.5t70.5 -157.5t2.5 -212l-6 -51h-739 q-8 -63 5 -118.5t44 -97.5t78 -66.5t106 -24.5q104 0 182.5 37t143.5 108l109 -94q-100 -111 -210 -155t-245 -44q-70 0 -126 18.5t-97 48.5t-69 66.5t-42 73.5q-74 -115 -182.5 -161t-231.5 -46q-61 0 -122.5 16.5t-107.5 51.5t-69.5 89t-13.5 132zM307 270 q-6 -41 9.5 -68.5t45 -45t67.5 -25.5t79 -8q125 0 214 78t107 202l5 27h-240q-43 0 -90 -7t-89 -24.5t-72 -48.5t-36 -80zM999 565h568q12 123 -53.5 197t-198.5 74q-59 0 -112.5 -24t-95.5 -61.5t-70.5 -87t-37.5 -98.5z" />
<glyph unicode="&#xe7;" horiz-adv-x="987" d="M164 479q14 109 63 201t124 159.5t171 105.5t207 38q106 0 196.5 -37t151.5 -115l-143 -112q-41 61 -97.5 89t-127.5 28q-80 0 -144.5 -28t-113 -77t-77 -113.5t-38.5 -138.5t3 -138.5t49 -113.5t91.5 -76.5t128.5 -27.5q158 0 262 119l103 -113q-74 -72 -163 -108.5 t-183 -40.5l-95 -111q14 2 32 5t42 3q27 0 54.5 -8t49 -25.5t34 -44t6.5 -63.5q-6 -49 -33 -84t-65 -56.5t-82 -30.5t-85 -9q-53 0 -104 10t-94 33l47 75q66 -33 141 -32q20 0 43 4t42.5 13t33.5 25.5t18 41.5q6 43 -26.5 60t-67.5 17q-20 0 -41.5 -5t-42.5 -11l-35 39 l136 156q-98 8 -174 48t-125.5 105.5t-67.5 152.5t-4 191z" />
<glyph unicode="&#xe8;" d="M164 479q14 111 64.5 204t125 159.5t169.5 103.5t202 37q100 0 180 -34t131 -98.5t70.5 -157.5t3.5 -212l-6 -51h-774q-4 -61 12 -117.5t52 -98.5t87 -66.5t117 -24.5q104 0 182 37t144 108l108 -94q-100 -111 -209.5 -155t-244.5 -44q-113 0 -197 40t-137.5 107.5 t-73.5 160t-6 196.5zM348 565h602q12 123 -53.5 197t-198.5 74t-225 -74t-125 -197zM481 1483h226l172 -295h-146z" />
<glyph unicode="&#xe9;" d="M164 479q14 111 64.5 204t125 159.5t169.5 103.5t202 37q100 0 180 -34t131 -98.5t70.5 -157.5t3.5 -212l-6 -51h-774q-4 -61 12 -117.5t52 -98.5t87 -66.5t117 -24.5q104 0 182 37t144 108l108 -94q-100 -111 -209.5 -155t-244.5 -44q-113 0 -197 40t-137.5 107.5 t-73.5 160t-6 196.5zM348 565h602q12 123 -53.5 197t-198.5 74t-225 -74t-125 -197zM596 1188l254 295h225l-334 -295h-145z" />
<glyph unicode="&#xea;" d="M164 479q14 111 64.5 204t125 159.5t169.5 103.5t202 37q100 0 180 -34t131 -98.5t70.5 -157.5t3.5 -212l-6 -51h-774q-4 -61 12 -117.5t52 -98.5t87 -66.5t117 -24.5q104 0 182 37t144 108l108 -94q-100 -111 -209.5 -155t-244.5 -44q-113 0 -197 40t-137.5 107.5 t-73.5 160t-6 196.5zM348 565h602q12 123 -53.5 197t-198.5 74t-225 -74t-125 -197zM416 1188l268 295h186l189 -295h-166l-133 209l-189 -209h-155z" />
<glyph unicode="&#xeb;" d="M164 479q14 111 64.5 204t125 159.5t169.5 103.5t202 37q100 0 180 -34t131 -98.5t70.5 -157.5t3.5 -212l-6 -51h-774q-4 -61 12 -117.5t52 -98.5t87 -66.5t117 -24.5q104 0 182 37t144 108l108 -94q-100 -111 -209.5 -155t-244.5 -44q-113 0 -197 40t-137.5 107.5 t-73.5 160t-6 196.5zM348 565h602q12 123 -53.5 197t-198.5 74t-225 -74t-125 -197zM442 1323q6 45 42 78t83 33t75 -33t22 -78q-6 -47 -43 -79t-84 -32t-74 32t-21 79zM848 1323q6 45 42 78t83 33t74.5 -33t21.5 -78q-6 -47 -43 -79t-84 -32t-73.5 32t-20.5 79z" />
<glyph unicode="&#xec;" horiz-adv-x="491" d="M158 1483h225l172 -295h-145zM166 0l135 958h160l-135 -958h-160z" />
<glyph unicode="&#xed;" horiz-adv-x="491" d="M166 0l135 958h160l-135 -958h-160zM272 1188l254 295h226l-334 -295h-146z" />
<glyph unicode="&#xee;" horiz-adv-x="491" d="M92 1188l268 295h187l188 -295h-166l-133 209l-188 -209h-156zM166 0l135 958h160l-135 -958h-160z" />
<glyph unicode="&#xef;" horiz-adv-x="491" d="M119 1323q6 45 42 78t83 33t74.5 -33t21.5 -78q-6 -47 -43 -79t-84 -32t-73.5 32t-20.5 79zM166 0l135 958h160l-135 -958h-160zM524 1323q6 45 42 78t83 33t75 -33t21 -78q-6 -47 -42.5 -79t-84.5 -32q-47 0 -73.5 32t-20.5 79z" />
<glyph unicode="&#xf0;" horiz-adv-x="1216" d="M164 479q14 113 66.5 205t129 158.5t176 103.5t209.5 37q78 0 143.5 -24.5t110.5 -75.5l2 4q-41 106 -109.5 202.5t-143.5 186.5l-236 -111l-74 84l232 109q-35 41 -76 81t-82 74l152 82q41 -37 85 -79.5t78 -83.5l236 110l82 -80l-244 -114q70 -78 132.5 -162 t105.5 -181.5t59 -212t-2 -249.5q-18 -125 -64.5 -229.5t-120 -179.5t-176 -117t-231.5 -42q-111 0 -200 37t-147 103.5t-84 159t-9 204.5zM336 479q-10 -76 4 -140.5t52 -112.5t96.5 -75.5t136.5 -27.5t144.5 27.5t117.5 75.5t85 112.5t44 140.5t-4.5 140.5t-52 112.5 t-97 76t-137.5 28t-144.5 -28t-116.5 -76t-84 -112.5t-44 -140.5z" />
<glyph unicode="&#xf1;" d="M152 0l102 731q10 66 13 123t12 104h151q-6 -39 -9 -77.5t-9 -79.5h4q20 35 54 67.5t79 58t98 41t113 15.5q94 0 159.5 -28.5t103.5 -80t49 -124t-1 -158.5l-84 -592h-160l80 575q16 121 -26.5 191t-155.5 70q-156 0 -241 -102.5t-107 -266.5l-66 -467h-159zM397 1212 q12 39 34 78t51.5 69t67.5 48t83 18q47 0 86 -15t80 -32q29 -12 50 -23.5t54 -11.5q41 0 67.5 27t43.5 64h98q-12 -39 -30.5 -77t-45 -69t-62.5 -49t-81 -18q-43 0 -84 13t-76 30q-29 12 -62.5 25.5t-68.5 13.5q-39 0 -65.5 -28t-40.5 -63h-99z" />
<glyph unicode="&#xf2;" horiz-adv-x="1216" d="M164 479q14 113 66.5 205t129 158.5t176 103.5t209.5 37q111 0 200 -37t147.5 -103.5t84 -158.5t11.5 -205q-16 -113 -67.5 -205t-129.5 -158.5t-177 -103.5t-210 -37t-200 37t-147 103.5t-83.5 158.5t-9.5 205zM336 479q-10 -76 4 -140.5t52 -112.5t96.5 -75.5 t136.5 -27.5t144.5 27.5t117.5 75.5t85 112.5t44 140.5t-4.5 140.5t-52 112.5t-97 76t-137.5 28t-144.5 -28t-116.5 -76t-84 -112.5t-44 -140.5zM520 1483h225l173 -295h-146z" />
<glyph unicode="&#xf3;" horiz-adv-x="1216" d="M164 479q14 113 66.5 205t129 158.5t176 103.5t209.5 37q111 0 200 -37t147.5 -103.5t84 -158.5t11.5 -205q-16 -113 -67.5 -205t-129.5 -158.5t-177 -103.5t-210 -37t-200 37t-147 103.5t-83.5 158.5t-9.5 205zM336 479q-10 -76 4 -140.5t52 -112.5t96.5 -75.5 t136.5 -27.5t144.5 27.5t117.5 75.5t85 112.5t44 140.5t-4.5 140.5t-52 112.5t-97 76t-137.5 28t-144.5 -28t-116.5 -76t-84 -112.5t-44 -140.5zM635 1188l254 295h225l-334 -295h-145z" />
<glyph unicode="&#xf4;" horiz-adv-x="1216" d="M164 479q14 113 66.5 205t129 158.5t176 103.5t209.5 37q111 0 200 -37t147.5 -103.5t84 -158.5t11.5 -205q-16 -113 -67.5 -205t-129.5 -158.5t-177 -103.5t-210 -37t-200 37t-147 103.5t-83.5 158.5t-9.5 205zM336 479q-10 -76 4 -140.5t52 -112.5t96.5 -75.5 t136.5 -27.5t144.5 27.5t117.5 75.5t85 112.5t44 140.5t-4.5 140.5t-52 112.5t-97 76t-137.5 28t-144.5 -28t-116.5 -76t-84 -112.5t-44 -140.5zM455 1188l268 295h186l189 -295h-166l-133 209l-189 -209h-155z" />
<glyph unicode="&#xf5;" horiz-adv-x="1216" d="M164 479q14 113 66.5 205t129 158.5t176 103.5t209.5 37q111 0 200 -37t147.5 -103.5t84 -158.5t11.5 -205q-16 -113 -67.5 -205t-129.5 -158.5t-177 -103.5t-210 -37t-200 37t-147 103.5t-83.5 158.5t-9.5 205zM336 479q-10 -76 4 -140.5t52 -112.5t96.5 -75.5 t136.5 -27.5t144.5 27.5t117.5 75.5t85 112.5t44 140.5t-4.5 140.5t-52 112.5t-97 76t-137.5 28t-144.5 -28t-116.5 -76t-84 -112.5t-44 -140.5zM436 1212q12 39 34 78t51.5 69t67.5 48t83 18q47 0 86 -15t80 -32q29 -12 50 -23.5t54 -11.5q41 0 67.5 27t43.5 64h98 q-12 -39 -30.5 -77t-45 -69t-62.5 -49t-81 -18q-43 0 -84 13t-76 30q-29 12 -62.5 25.5t-68.5 13.5q-39 0 -65.5 -28t-40.5 -63h-99z" />
<glyph unicode="&#xf6;" horiz-adv-x="1216" d="M164 479q14 113 66.5 205t129 158.5t176 103.5t209.5 37q111 0 200 -37t147.5 -103.5t84 -158.5t11.5 -205q-16 -113 -67.5 -205t-129.5 -158.5t-177 -103.5t-210 -37t-200 37t-147 103.5t-83.5 158.5t-9.5 205zM336 479q-10 -76 4 -140.5t52 -112.5t96.5 -75.5 t136.5 -27.5t144.5 27.5t117.5 75.5t85 112.5t44 140.5t-4.5 140.5t-52 112.5t-97 76t-137.5 28t-144.5 -28t-116.5 -76t-84 -112.5t-44 -140.5zM481 1323q6 45 42 78t83 33t75 -33t21 -78q-6 -47 -42.5 -79t-84.5 -32q-47 0 -73.5 32t-20.5 79zM887 1323q6 45 42 78t83 33 t74.5 -33t21.5 -78q-6 -47 -43 -79t-84 -32t-73.5 32t-20.5 79z" />
<glyph unicode="&#xf7;" horiz-adv-x="1363" d="M225 553l19 135h1069l-19 -135h-1069zM604 283q8 49 47 82.5t86 33.5t78 -34.5t23 -81.5q-6 -49 -46 -83t-87 -34t-77 35t-24 82zM700 958q6 49 46 83t88 34q47 0 76.5 -34.5t23.5 -82.5q-8 -49 -47 -82.5t-86 -33.5t-78 34.5t-23 81.5z" />
<glyph unicode="&#xf8;" horiz-adv-x="1216" d="M76 4l160 143q-47 63 -66.5 147.5t-5.5 184.5q14 113 66.5 205t129 158.5t176 103.5t209.5 37q96 0 175 -27.5t137 -76.5l157 141l60 -66l-156 -141q47 -66 65.5 -149.5t4.5 -184.5q-16 -113 -67.5 -205t-129.5 -158.5t-177 -103.5t-210 -37q-96 0 -174 28t-133 79 l-160 -143zM336 479q-18 -123 33 -213l559 498q-35 35 -87.5 53.5t-115.5 18.5q-78 0 -144.5 -28t-116.5 -76t-84 -112.5t-44 -140.5zM422 195q35 -35 86 -53.5t117 -18.5q78 0 144.5 27.5t117.5 75.5t85 112.5t44 140.5q18 123 -33 213z" />
<glyph unicode="&#xf9;" d="M201.5 208q-11.5 73 1.5 159l84 591h159l-81 -575q-16 -121 26.5 -190.5t155.5 -69.5q156 0 241.5 102.5t108.5 266.5l66 466h159l-102 -731q-10 -66 -14.5 -123t-10.5 -104h-151q6 39 9 78t9 80h-4q-23 -35 -56.5 -68t-78.5 -58.5t-98.5 -41t-112.5 -15.5 q-94 0 -158.5 29t-102.5 80t-49.5 124zM481 1483h226l172 -295h-146z" />
<glyph unicode="&#xfa;" d="M201.5 208q-11.5 73 1.5 159l84 591h159l-81 -575q-16 -121 26.5 -190.5t155.5 -69.5q156 0 241.5 102.5t108.5 266.5l66 466h159l-102 -731q-10 -66 -14.5 -123t-10.5 -104h-151q6 39 9 78t9 80h-4q-23 -35 -56.5 -68t-78.5 -58.5t-98.5 -41t-112.5 -15.5 q-94 0 -158.5 29t-102.5 80t-49.5 124zM596 1188l254 295h225l-334 -295h-145z" />
<glyph unicode="&#xfb;" d="M201.5 208q-11.5 73 1.5 159l84 591h159l-81 -575q-16 -121 26.5 -190.5t155.5 -69.5q156 0 241.5 102.5t108.5 266.5l66 466h159l-102 -731q-10 -66 -14.5 -123t-10.5 -104h-151q6 39 9 78t9 80h-4q-23 -35 -56.5 -68t-78.5 -58.5t-98.5 -41t-112.5 -15.5 q-94 0 -158.5 29t-102.5 80t-49.5 124zM416 1188l268 295h186l189 -295h-166l-133 209l-189 -209h-155z" />
<glyph unicode="&#xfc;" d="M201.5 208q-11.5 73 1.5 159l84 591h159l-81 -575q-16 -121 26.5 -190.5t155.5 -69.5q156 0 241.5 102.5t108.5 266.5l66 466h159l-102 -731q-10 -66 -14.5 -123t-10.5 -104h-151q6 39 9 78t9 80h-4q-23 -35 -56.5 -68t-78.5 -58.5t-98.5 -41t-112.5 -15.5 q-94 0 -158.5 29t-102.5 80t-49.5 124zM442 1323q6 45 42 78t83 33t75 -33t22 -78q-6 -47 -43 -79t-84 -32t-74 32t-21 79zM848 1323q6 45 42 78t83 33t74.5 -33t21.5 -78q-6 -47 -43 -79t-84 -32t-73.5 32t-20.5 79z" />
<glyph unicode="&#xfd;" horiz-adv-x="987" d="M-25 -467l41 139q41 -16 109 -16q78 0 122 43t79 115l92 180l-262 964h186l190 -751h5l391 751h174l-629 -1177q-33 -61 -65.5 -111.5t-73.5 -86.5t-94.5 -55.5t-124.5 -19.5q-35 0 -72 4.5t-68 20.5zM520 1188l254 295h225l-333 -295h-146z" />
<glyph unicode="&#xfe;" horiz-adv-x="1251" d="M78 -467l282 2015h160l-102 -729h4q78 78 170 121t196 43q113 0 201 -38t144.5 -105.5t80 -159.5t9.5 -201q-16 -109 -66.5 -201t-124.5 -159.5t-167 -105.5t-193 -38q-129 0 -218 56.5t-122 138.5h-4l-90 -637h-160zM371 479q-10 -76 4 -140.5t52 -112.5t96.5 -75.5 t135.5 -27.5q78 0 144.5 27.5t118 75.5t85 112.5t44.5 140.5q10 76 -4.5 140.5t-52.5 112.5t-97 76t-137 28t-144.5 -28t-116.5 -76t-84 -112.5t-44 -140.5z" />
<glyph unicode="&#xff;" horiz-adv-x="987" d="M-25 -467l41 139q41 -16 109 -16q78 0 122 43t79 115l92 180l-262 964h186l190 -751h5l391 751h174l-629 -1177q-33 -61 -65.5 -111.5t-73.5 -86.5t-94.5 -55.5t-124.5 -19.5q-35 0 -72 4.5t-68 20.5zM367 1323q6 45 42 78t83 33t74.5 -33t21.5 -78q-6 -47 -43 -79 t-84 -32t-74 32t-20 79zM772 1323q6 45 42 78t83 33t74.5 -33t21.5 -78q-6 -47 -43 -79t-84 -32t-73.5 32t-20.5 79z" />
<glyph unicode="&#x152;" horiz-adv-x="1972" d="M215 725q20 141 89 272t184.5 231.5t274.5 161t359 60.5h930l-22 -160h-615l-65 -454h577l-22 -160h-578l-72 -516h627l-22 -160h-942q-201 0 -342.5 60.5t-228.5 161t-119.5 231.5t-12.5 272zM399 725q-14 -104 8.5 -205.5t89 -181.5t177 -129t274.5 -49h135l160 1130 h-135q-164 0 -289 -49t-214 -129t-140 -181.5t-66 -205.5z" />
<glyph unicode="&#x153;" horiz-adv-x="1857" d="M141 479q14 109 63.5 201t124 159.5t171 105.5t205.5 38q129 0 219 -45t153 -147q176 193 389 192q100 0 180 -34t131.5 -98.5t71 -157.5t2.5 -212l-6 -51h-739q-8 -63 5 -118.5t44 -97.5t78 -66.5t106 -24.5q104 0 182 37t144 108l109 -94q-100 -111 -210 -155t-245 -44 q-104 0 -192.5 46.5t-135.5 150.5q-88 -98 -190.5 -147.5t-231.5 -49.5q-115 0 -201.5 36t-142 102.5t-78 159t-6.5 206.5zM313 479q-10 -70 1.5 -134t44 -113.5t88 -79t135.5 -29.5q82 0 147.5 27.5t114.5 76.5t79.5 114t41.5 138q10 70 -1.5 134.5t-45 113.5t-91 79 t-137.5 30t-145.5 -29t-113.5 -77t-78 -112.5t-40 -138.5zM1124 565h568q12 123 -53.5 197t-198.5 74q-59 0 -112.5 -24t-95.5 -61.5t-70.5 -87t-37.5 -98.5z" />
<glyph unicode="&#x178;" horiz-adv-x="1216" d="M186 1450h220l315 -655l512 655h207l-658 -825l-88 -625h-172l88 625zM532 1688q6 45 42 77.5t83 32.5t75 -32.5t22 -77.5q-6 -47 -43 -79t-84 -32t-74 31.5t-21 79.5zM938 1688q6 45 42 77.5t83 32.5t74.5 -32.5t21.5 -77.5q-6 -47 -43 -79t-84 -32t-73.5 31.5 t-20.5 79.5z" />
<glyph unicode="&#x2c6;" horiz-adv-x="491" d="M86 1155l270 295h187l186 -295h-166l-131 209l-190 -209h-156z" />
<glyph unicode="&#x2dc;" horiz-adv-x="491" d="M70 1180q12 39 32.5 77.5t51 68.5t68.5 48.5t83 18.5q47 0 86 -15.5t78 -31.5q29 -12 51.5 -23.5t54.5 -11.5q41 0 68 26.5t43 63.5h98q-12 -39 -30.5 -77t-45 -68.5t-62.5 -49t-81 -18.5q-43 0 -84 13t-78 30q-29 12 -61.5 25.5t-67.5 13.5q-39 0 -65.5 -28t-40.5 -62 h-98z" />
<glyph unicode="&#x2000;" horiz-adv-x="950" />
<glyph unicode="&#x2001;" horiz-adv-x="1901" />
<glyph unicode="&#x2002;" horiz-adv-x="950" />
<glyph unicode="&#x2003;" horiz-adv-x="1901" />
<glyph unicode="&#x2004;" horiz-adv-x="633" />
<glyph unicode="&#x2005;" horiz-adv-x="475" />
<glyph unicode="&#x2006;" horiz-adv-x="316" />
<glyph unicode="&#x2007;" horiz-adv-x="316" />
<glyph unicode="&#x2008;" horiz-adv-x="237" />
<glyph unicode="&#x2009;" horiz-adv-x="380" />
<glyph unicode="&#x200a;" horiz-adv-x="105" />
<glyph unicode="&#x2010;" horiz-adv-x="681" d="M150 418l20 147h502l-21 -147h-501z" />
<glyph unicode="&#x2011;" horiz-adv-x="681" d="M150 418l20 147h502l-21 -147h-501z" />
<glyph unicode="&#x2012;" horiz-adv-x="681" d="M150 418l20 147h502l-21 -147h-501z" />
<glyph unicode="&#x2013;" horiz-adv-x="1024" d="M59 418l21 147h1024l-21 -147h-1024z" />
<glyph unicode="&#x2014;" horiz-adv-x="2048" d="M59 418l21 147h2048l-21 -147h-2048z" />
<glyph unicode="&#x2018;" horiz-adv-x="569" d="M258 958l238 492h155l-207 -492h-186z" />
<glyph unicode="&#x2019;" horiz-adv-x="569" d="M258 958l207 492h186l-237 -492h-156z" />
<glyph unicode="&#x201a;" horiz-adv-x="569" d="M84 -283l205 492h186l-235 -492h-156z" />
<glyph unicode="&#x201c;" horiz-adv-x="1062" d="M313 958l238 492h156l-207 -492h-187zM696 958l238 492h156l-207 -492h-187z" />
<glyph unicode="&#x201d;" horiz-adv-x="1062" d="M313 958l207 492h187l-238 -492h-156zM696 958l207 492h187l-238 -492h-156z" />
<glyph unicode="&#x201e;" horiz-adv-x="1062" d="M139 -283l205 492h186l-235 -492h-156zM522 -283l205 492h186l-235 -492h-156z" />
<glyph unicode="&#x2022;" horiz-adv-x="1024" d="M252 725q10 76 48 141.5t94.5 114.5t126 77.5t145.5 28.5t137 -28.5t104 -77.5t61.5 -114.5t8.5 -141.5t-48 -141.5t-94.5 -114.5t-126 -78t-145.5 -29t-137 29t-104 78t-61.5 114.5t-8.5 141.5z" />
<glyph unicode="&#x2026;" horiz-adv-x="2048" d="M236 111q6 51 47 86.5t92 35.5t81.5 -35.5t24.5 -86.5q-8 -51 -51 -87t-90 -36t-80 35.5t-24 87.5zM918 111q6 51 47 86.5t92 35.5t81.5 -35.5t24.5 -86.5q-8 -51 -51 -87t-90 -36t-80 35.5t-24 87.5zM1599 111q6 51 47.5 86.5t92.5 35.5t81.5 -35.5t24.5 -86.5 q-8 -51 -51 -87t-90 -36t-80 35.5t-25 87.5z" />
<glyph unicode="&#x202f;" horiz-adv-x="380" />
<glyph unicode="&#x2039;" horiz-adv-x="643" d="M188 492l355 438l102 -74l-291 -364l189 -365l-123 -74z" />
<glyph unicode="&#x203a;" horiz-adv-x="643" d="M137 127l291 365l-188 364l122 74l232 -438l-354 -439z" />
<glyph unicode="&#x205f;" horiz-adv-x="475" />
<glyph unicode="&#x20ac;" d="M113 473l53 117h98q4 29 7 58.5t8 60.5q4 41 11 78.5t17 72.5h-135l55 121h119q92 242 260 368t373 126q43 0 86 -6.5t82 -16.5t71.5 -23.5t53.5 -27.5l-64 -144q-41 35 -104.5 55.5t-147.5 20.5q-137 0 -249.5 -89t-182.5 -263h568l-48 -121h-559q-10 -37 -18 -77 t-14 -81q-4 -29 -6.5 -56.5t-6.5 -55.5h496l-49 -117h-449q6 -170 77 -265t220 -95q86 0 154.5 36.5t120.5 90.5l82 -93q-31 -37 -73 -67.5t-93.5 -54t-107.5 -37t-116 -13.5q-209 0 -320.5 126t-119.5 372h-149z" />
<glyph unicode="&#x2122;" horiz-adv-x="2027" d="M315 1315l21 135h668l-21 -135h-266l-99 -709h-135l99 709h-267zM1055 606l119 844h215l161 -641l342 641h209l-119 -844h-135l99 709h-4l-377 -709h-92l-181 709h-4l-98 -709h-135z" />
<glyph unicode="&#xe000;" horiz-adv-x="962" d="M0 0v963h963v-963h-963z" />
<glyph unicode="&#xfb01;" horiz-adv-x="1099" d="M141 823l19 135h209l30 216q12 88 39 160.5t74 125.5t116.5 83t166.5 30q31 0 63.5 -6t54.5 -19l-43 -143q-25 10 -50 15t-54 5q-61 0 -99 -21.5t-60.5 -59t-34 -91t-19.5 -114.5l-25 -181h234l-19 -135h-233l-117 -823h-160l117 823h-209zM774 0l135 958h160l-135 -958 h-160zM924 1333q8 47 47 82t88 35t77.5 -35t20.5 -82q-6 -51 -44 -83.5t-89 -32.5t-78.5 32.5t-21.5 83.5z" />
<glyph unicode="&#xfb02;" horiz-adv-x="1099" d="M141 823l19 135h209l30 216q12 88 39 160.5t74 125.5t116.5 83t166.5 30q31 0 63.5 -6t54.5 -19l-43 -143q-25 10 -50 15t-54 5q-61 0 -99 -21.5t-60.5 -59t-34 -91t-19.5 -114.5l-25 -181h234l-19 -135h-233l-117 -823h-160l117 823h-209zM774 0l217 1548h160 l-217 -1548h-160z" />
</font>
</defs>
</svg>
