<?xml version="1.0" standalone="no"?>
<!DOCTYPE svg PUBLIC "-//W3C//DTD SVG 1.1//EN" "http://www.w3.org/Graphics/SVG/1.1/DTD/svg11.dtd" >
<svg xmlns="http://www.w3.org/2000/svg">
<metadata></metadata>
<defs>
<font id="av1_romanbold_italic" horiz-adv-x="1175" >
<font-face units-per-em="2048" ascent="1548" descent="-500" />
<missing-glyph horiz-adv-x="606" />
<glyph horiz-adv-x="2048" />
<glyph horiz-adv-x="2048" />
<glyph unicode="&#xd;" horiz-adv-x="2048" />
<glyph unicode=" "  horiz-adv-x="606" />
<glyph unicode="&#x09;" horiz-adv-x="606" />
<glyph unicode="&#xa0;" horiz-adv-x="606" />
<glyph unicode="!" horiz-adv-x="606" d="M160 143q10 66 64.5 113t121.5 47q66 0 108 -45t33 -111q-10 -66 -64 -112.5t-122 -46.5q-33 0 -60.5 12t-47 32.5t-28.5 49t-5 61.5zM244 455l141 995h246l-142 -995h-245z" />
<glyph unicode="&#x22;" horiz-adv-x="1062" d="M373 909l78 541h208l-77 -541h-209zM735 909l78 541h209l-78 -541h-209z" />
<glyph unicode="#" horiz-adv-x="1212" d="M156 428l24 172h207l72 250h-185l25 172h207l123 428h180l-123 -428h211l123 428h178l-123 -428h185l-25 -172h-209l-70 -250h185l-25 -172h-205l-123 -428h-178l121 428h-213l-121 -428h-178l121 428h-184zM567 600h211l70 250h-211z" />
<glyph unicode="$" horiz-adv-x="1212" d="M86 158l213 190q41 -70 112.5 -106.5t155.5 -44.5l62 432l-11 2q-82 25 -155.5 54.5t-126.5 77.5t-79 116.5t-11 171.5q12 92 60 165.5t117 128t154 87t171 41.5l18 137h111l-19 -135h19q104 0 208.5 -36t171.5 -106l-196 -190q-41 51 -101.5 80.5t-132.5 29.5l-57 -409 l8 -2q82 -23 161 -51.5t137.5 -74.5t88 -116t15.5 -174q-14 -102 -61.5 -181t-119 -135.5t-163 -89t-189.5 -43.5l-20 -147h-111l21 145q-135 -2 -253 41t-198 142zM506 1063q-6 -47 4 -76t32.5 -49t54.5 -33.5t67 -30.5l53 375q-37 -6 -73 -21.5t-64.5 -39t-48 -55 t-25.5 -70.5zM678 197q88 16 158.5 68t83.5 143q6 45 -9.5 75.5t-43 51t-62.5 35t-70 26.5z" />
<glyph unicode="%" horiz-adv-x="1857" d="M215 1094q12 80 51 148.5t98.5 120.5t132 82t152.5 30t144.5 -30t109.5 -82t65.5 -120.5t8.5 -148.5q-10 -80 -50 -148.5t-98.5 -121t-132 -82t-153.5 -29.5t-144.5 29.5t-109.5 82t-64.5 121t-9.5 148.5zM412 1094q-10 -78 35 -131.5t122 -53.5q39 0 75 14.5t64.5 39 t47 58.5t24.5 73q10 78 -35 131t-122 53q-39 0 -75 -14.5t-64.5 -39t-47 -58t-24.5 -72.5zM422 12l1063 1504l160 -78l-1063 -1504zM1083 356q12 80 52.5 148.5t98.5 121t132 82t154 29.5t144.5 -29.5t108.5 -82t64.5 -121t7.5 -148.5q-10 -80 -50 -148.5t-98.5 -120.5 t-132 -82t-153.5 -30t-144.5 30t-109.5 82t-64.5 120.5t-9.5 148.5zM1280 356q-10 -78 36 -131t124 -53q39 0 73.5 14.5t63.5 39t47.5 58t24.5 72.5q10 78 -35 131.5t-123 53.5q-39 0 -75 -14.5t-64.5 -39t-47 -58.5t-24.5 -73z" />
<glyph unicode="&#x26;" horiz-adv-x="1517" d="M154 389q10 74 42.5 136.5t83 114.5t113 92t131.5 65q-29 39 -54.5 75.5t-41.5 75.5t-23.5 84t1.5 98q12 88 55 156t106.5 112t142 66.5t160.5 22.5t153 -20.5t122 -62.5t74.5 -107.5t11.5 -153.5q-10 -68 -42 -124t-79 -102.5t-104.5 -84t-114.5 -64.5l196 -252l197 246 h289l-350 -420l266 -342h-318l-131 166q-102 -104 -209.5 -153.5t-246.5 -49.5q-96 0 -181.5 27.5t-144.5 82t-89 133.5t-15 183zM426 403q-6 -47 6 -88t40 -69.5t67 -45t86 -16.5q86 0 154.5 45t129.5 99l-250 323q-39 -23 -77.5 -46t-71.5 -52t-55.5 -65.5t-28.5 -84.5z M649 1120q-8 -57 29 -111.5t78 -99.5q33 16 70.5 38t71.5 49.5t57.5 60.5t29.5 73q8 59 -33.5 97.5t-107.5 38.5q-72 0 -128.5 -40t-66.5 -106z" />
<glyph unicode="'" horiz-adv-x="606" d="M326 909l77 541h209l-77 -541h-209z" />
<glyph unicode="(" horiz-adv-x="606" d="M180 590q35 250 147.5 482.5t280.5 426.5l160 -106l-4 -9q-147 -172 -245.5 -377.5t-129.5 -416.5q-29 -213 11 -419t141 -378l-189 -112q-113 195 -160 426t-12 483z" />
<glyph unicode=")" horiz-adv-x="606" d="M4 -213l4 8q147 172 245.5 378t127.5 417q31 213 -10 417.5t-140 376.5l189 115q113 -195 159 -426t11 -483q-35 -250 -146.5 -482.5t-279.5 -426.5z" />
<glyph unicode="*" horiz-adv-x="948" d="M211 1092l76 163l266 -96l41 291h172l-41 -291l289 90l28 -164l-290 -90l143 -239l-156 -103l-143 242l-205 -236l-123 105l209 231z" />
<glyph unicode="+" horiz-adv-x="1363" d="M199 516l30 209h451l63 451h209l-63 -451h450l-30 -209h-451l-63 -450h-209l63 450h-450z" />
<glyph unicode="," horiz-adv-x="606" d="M41 -258l219 541h250l-250 -541h-219z" />
<glyph unicode="-" horiz-adv-x="645" d="M125 399l31 209h506l-31 -209h-506z" />
<glyph unicode="." horiz-adv-x="606" d="M160 143q10 66 64.5 113t121.5 47q66 0 108 -45t33 -111q-10 -66 -64 -112.5t-122 -46.5q-33 0 -60.5 12t-47 32.5t-28.5 49t-5 61.5z" />
<glyph unicode="/" horiz-adv-x="796" d="M-25 -37l865 1589l159 -65l-862 -1585z" />
<glyph unicode="0" horiz-adv-x="1212" d="M169.5 431q-10.5 122 14.5 294t69 294t100.5 205t121 133t126 75.5t116.5 34t96 8.5t94.5 -8.5t107.5 -34t104 -75.5t83 -133t44 -205t-13 -294q-25 -172 -70 -294t-101 -205t-119.5 -133t-126 -75.5t-118 -34t-96.5 -8.5t-94 8.5t-107.5 34t-103.5 75.5t-83 133 t-44.5 205zM416 568q-4 -89 14.5 -169t65.5 -135t139 -55t154.5 55t103.5 135t62.5 169t31.5 157q8 68 12.5 157t-14 168.5t-66 135t-139.5 55.5t-154.5 -55.5t-103.5 -135t-62.5 -168.5t-29.5 -157q-10 -68 -14 -157z" />
<glyph unicode="1" horiz-adv-x="1212" d="M285 1085l491 365h223l-204 -1450h-246l164 1167l-307 -252z" />
<glyph unicode="2" horiz-adv-x="1212" d="M121 0l37 260l639 545q29 25 59.5 52.5t56 58t44 64.5t24.5 71q12 90 -43 140t-141 50q-92 0 -159 -53t-91 -144l-256 21q23 100 73 177t120.5 128t158.5 78t186 27t180.5 -26t138.5 -76t81.5 -128t11.5 -182q-20 -137 -96 -236.5t-187 -189.5l-507 -416h671l-30 -221 h-971z" />
<glyph unicode="3" horiz-adv-x="1212" d="M139 315l271 70q10 -90 60 -139t148 -49q49 0 96.5 16t85.5 46t63.5 72t31.5 93q10 70 -13.5 114t-66.5 67.5t-99.5 31.5t-111.5 8h-59l30 221h64q53 0 104.5 6.5t94.5 27t72.5 59t39.5 104.5q12 84 -38 137t-142 53q-74 0 -138.5 -42t-101.5 -117l-249 69 q35 80 89 139.5t120.5 97.5t142.5 56.5t155 18.5q94 0 175 -25t137.5 -73t84 -120.5t15.5 -169.5q-8 -59 -32.5 -111t-63.5 -95t-89 -75t-110 -46v-4q135 -20 193.5 -118.5t40.5 -234.5q-14 -104 -66.5 -184t-127.5 -134t-168 -82t-189 -28q-90 0 -167 19.5t-136.5 60.5 t-97 105.5t-48.5 154.5z" />
<glyph unicode="4" horiz-adv-x="1212" d="M111 295l34 244l713 911h279l-133 -934h210l-30 -221h-211l-41 -295h-246l41 295h-616zM391 516h367l84 586h-4z" />
<glyph unicode="5" horiz-adv-x="1212" d="M133 307l268 70q14 -78 66.5 -123t146.5 -45q55 0 104.5 18.5t87.5 52t63.5 78.5t31.5 99q10 76 -9.5 129t-61.5 87t-101 49t-127 15q-80 0 -162 -18.5t-151 -50.5l125 782h825l-33 -221h-583l-45 -289q29 10 73.5 14t83.5 4q106 0 190.5 -33.5t139.5 -97t77.5 -151.5 t8.5 -199q-16 -117 -69.5 -210t-133.5 -157.5t-181 -99.5t-212 -35q-174 0 -283.5 82t-138.5 250z" />
<glyph unicode="6" horiz-adv-x="1212" d="M156 469q16 115 67 208t123 189l455 584h299l-424 -537l2 -4q25 12 63.5 18.5t75.5 6.5q96 0 171 -37t124 -100.5t69.5 -147.5t6.5 -178q-16 -113 -67.5 -205t-129.5 -156.5t-178 -99.5t-211 -35q-115 0 -204 34t-148.5 97.5t-85 155.5t-8.5 207zM414 473q-8 -55 6 -103 t45 -84t76 -56.5t100 -20.5t105.5 20.5t91.5 56.5t68.5 84t35.5 103t-6 103.5t-45 84t-75 56t-99 20.5t-106.5 -20.5t-92.5 -56t-68.5 -84t-35.5 -103.5z" />
<glyph unicode="7" horiz-adv-x="1212" d="M203 0l762 1217h-709l35 233h985l-33 -225l-751 -1225h-289z" />
<glyph unicode="8" horiz-adv-x="1212" d="M174 412q8 68 39 127t74 105t95 78t105 42l2 4q-104 33 -147 121t-27 205q12 92 57.5 162.5t113 118.5t151.5 74t176 26t170 -26t131 -74t78 -118.5t12 -162.5q-16 -117 -82.5 -205t-181.5 -121l-2 -4q51 -10 94 -42t73 -78t43 -105.5t5 -126.5q-14 -109 -64.5 -190 t-124 -136t-168 -83t-194.5 -28q-102 0 -187 28t-143.5 83t-85 136t-12.5 190zM424 442q-14 -104 45 -168.5t166 -64.5q53 0 100 17.5t84 48t61.5 73.5t30.5 94q6 49 -7 91t-41.5 73t-71 47.5t-91.5 16.5t-96 -16.5t-85 -47.5t-63.5 -72.5t-31.5 -91.5zM557 1069 q-12 -86 33 -144.5t137 -58.5q41 0 79 15.5t68.5 43t52 64.5t27.5 80q12 82 -36 139.5t-134 57.5q-94 0 -154.5 -57.5t-72.5 -139.5z" />
<glyph unicode="9" horiz-adv-x="1212" d="M227 979q16 113 67.5 205t130.5 156.5t178 99.5t210 35q113 0 203 -34t149.5 -97.5t85 -155.5t9.5 -207t-66.5 -208t-124.5 -189l-453 -584h-299l424 537l-4 4q-23 -12 -62.5 -18.5t-76.5 -6.5q-96 0 -171 37t-124 100.5t-68.5 147.5t-7.5 178zM473 977 q-8 -55 6.5 -103.5t45 -84t75.5 -56t100 -20.5t105.5 20.5t91.5 56t68.5 84t35.5 103.5t-6 103t-44.5 84t-76 56.5t-100.5 20.5t-105.5 -20.5t-91 -56.5t-68.5 -84t-36 -103z" />
<glyph unicode=":" horiz-adv-x="606" d="M160 143q10 66 64.5 113t121.5 47q66 0 108 -45t33 -111q-10 -66 -64 -112.5t-122 -46.5q-33 0 -60.5 12t-47 32.5t-28.5 49t-5 61.5zM256 838q6 33 22.5 62.5t42 51t56.5 33.5t65 12q66 0 109 -45t35 -110q-10 -66 -64.5 -113t-122.5 -47q-33 0 -60.5 12.5t-48 33 t-29.5 49t-5 61.5z" />
<glyph unicode=";" horiz-adv-x="606" d="M41 -258l219 541h250l-250 -541h-219zM256 838q6 33 22.5 62.5t42 51t56.5 33.5t65 12q66 0 109 -45t35 -110q-10 -66 -64.5 -113t-122.5 -47q-33 0 -60.5 12.5t-48 33t-29.5 49t-5 61.5z" />
<glyph unicode="&#x3c;" horiz-adv-x="1363" d="M242 547l20 147l1100 461l-31 -225l-735 -309l647 -310l-31 -225z" />
<glyph unicode="=" horiz-adv-x="1363" d="M174 332l29 209h1110l-29 -209h-1110zM225 700l29 209h1110l-29 -209h-1110z" />
<glyph unicode="&#x3e;" horiz-adv-x="1363" d="M176 86l31 225l737 310l-649 309l31 225l972 -461l-20 -147z" />
<glyph unicode="?" horiz-adv-x="1062" d="M250 1073q25 98 75 175t119.5 130.5t155.5 81t184 27.5q92 0 167 -26.5t126 -77t74 -125t10 -171.5q-10 -68 -35.5 -118.5t-62.5 -94t-82 -82t-96 -81.5q-33 -27 -56.5 -47.5t-40 -42t-25.5 -49t-15 -66.5l-13 -78h-246l17 113q6 45 16 76.5t26.5 57t41 49.5t61.5 56 l180 160q57 51 70 133q10 80 -35 130t-125 50q-86 0 -149.5 -58t-83.5 -142zM410 143q10 66 64 113t122 47q66 0 107.5 -45t33.5 -111q-10 -66 -64.5 -112.5t-121.5 -46.5q-33 0 -60.5 12t-47 32.5t-28.5 49t-5 61.5z" />
<glyph unicode="@" horiz-adv-x="1638" d="M168 723q23 164 103.5 303t201.5 241.5t271.5 161t312.5 58.5q135 0 259 -44t214 -130t135 -212t23 -288q-23 -164 -90.5 -262t-148.5 -151.5t-161 -70t-125 -16.5q-86 0 -118.5 35t-28.5 76h-4q-47 -41 -112.5 -76t-164.5 -35q-66 0 -117 26t-83.5 71t-45 108.5 t-2.5 138.5q12 90 53.5 173t103 147.5t142 102.5t177.5 38q82 0 132 -26.5t72 -90.5h4l29 93h193l-133 -404q-10 -29 -20.5 -57.5t-14.5 -59.5q-4 -37 4 -56t41 -19t66.5 17t63.5 55t53.5 95.5t35.5 137.5q18 123 -8.5 216t-89 156.5t-156.5 95.5t-211 32q-127 0 -237.5 -43 t-195.5 -121t-140.5 -184.5t-73.5 -231.5q-18 -135 11.5 -241.5t99 -180.5t175 -114t234.5 -40q117 0 218.5 33t187.5 92h225q-131 -152 -308.5 -230.5t-365.5 -78.5q-164 0 -300 56.5t-230.5 156.5t-137.5 240.5t-18 306.5zM696 638q-2 -32 9.5 -62.5t43 -54t95.5 -23.5 q57 0 99 22.5t69.5 58t43 79.5t21.5 87q12 82 -17.5 135.5t-107.5 53.5q-51 0 -94 -19.5t-75.5 -53.5t-54 -79t-28.5 -96q-2 -16 -4 -48z" />
<glyph unicode="A" horiz-adv-x="1478" d="M0 0l836 1450h223l420 -1450h-295l-88 332h-629l-178 -332h-289zM586 553h450l-141 590z" />
<glyph unicode="B" horiz-adv-x="1327" d="M162 0l205 1450h565q82 0 158.5 -19.5t133.5 -63.5q56 -43 84 -113q19 -47 20 -107q0 -29 -5 -62q-16 -123 -97 -202.5t-198 -114.5l-2 -4q68 -8 121 -38t89 -76t50 -106q8 -35 8 -74q0 -27 -4 -56q-16 -119 -74.5 -198t-142.5 -127t-185.5 -68.5t-203.5 -20.5h-522z M451 221h237q49 0 106.5 6t107.5 29t87 64.5t47 113.5q3 22 3 41q1 82 -55 119q-68 45 -226 45h-248zM541 860h235q129 0 201 50.5t84 131.5q2 16 2 30q-1 72 -51 110q-60 46 -207 47h-213z" />
<glyph unicode="C" horiz-adv-x="1402" d="M184 719q25 174 101.5 316.5t192.5 242.5t264.5 154.5t316.5 54.5q147 0 266 -52.5t209 -177.5l-221 -147q-68 86 -138.5 114.5t-146.5 28.5q-113 0 -210 -39.5t-173 -110.5t-125 -165t-63 -203q-7 -51 -7 -98q0 -62 12 -117q21 -98 76.5 -169.5t141.5 -112.5t199 -41 q88 0 177 42t175 134l190 -152q-117 -135 -267 -196.5t-310 -61.5q-168 0 -301 54.5t-220 153.5t-125 239q-23 86 -23 182q0 61 9 127z" />
<glyph unicode="D" horiz-adv-x="1554" d="M162 0l205 1450h571q143 0 269 -44t216 -134t132 -226q27 -87 27 -193q0 -61 -9 -128q-27 -186 -117 -322.5t-214 -225.5t-266 -133t-274 -44h-540zM453 233h192q121 0 232.5 28t199.5 86.5t147.5 151.5t78.5 226q7 52 7 98q0 70 -16 127q-28 94 -92.5 152.5t-161 86.5 t-215.5 28h-235z" />
<glyph unicode="E" horiz-adv-x="1251" d="M162 0l205 1450h960l-35 -233h-702l-49 -357h665l-32 -233h-666l-55 -394h739l-33 -233h-997z" />
<glyph unicode="F" d="M162 0l205 1450h936l-35 -233h-678l-53 -381h639l-33 -234h-639l-84 -602h-258z" />
<glyph unicode="G" horiz-adv-x="1593" d="M184 719q25 174 101.5 316.5t192.5 242.5t264.5 154.5t316.5 54.5q166 0 306 -40t241 -142l-220 -193q-59 68 -153 104.5t-205 36.5q-113 0 -210 -39.5t-173 -110.5t-125 -165t-63 -203q-7 -51 -7 -98q0 -61 12 -117q21 -98 76.5 -169.5t141.5 -112.5t199 -41 q98 0 188 18t164 57l47 342h-297l33 234h555l-105 -742q-287 -143 -620 -143q-168 0 -301 54.5t-220 153.5t-125 239q-23 85 -23 182q0 61 9 127z" />
<glyph unicode="H" horiz-adv-x="1517" d="M162 0l205 1450h258l-82 -578h678l82 578h258l-205 -1450h-258l90 639h-678l-90 -639h-258z" />
<glyph unicode="I" horiz-adv-x="569" d="M156 0l204 1450h258l-204 -1450h-258z" />
<glyph unicode="J" horiz-adv-x="1024" d="M51 297l250 57q4 -72 43 -114.5t107 -42.5q111 0 162 74.5t69 205.5l137 973h258l-147 -1049q-12 -86 -51 -165.5t-102.5 -140t-150.5 -96.5t-196 -36q-172 0 -270.5 80t-108.5 254z" />
<glyph unicode="K" horiz-adv-x="1402" d="M162 0l205 1450h258l-88 -614h12l688 614h348l-772 -670l612 -780h-362l-528 713h-15l-100 -713h-258z" />
<glyph unicode="L" horiz-adv-x="1062" d="M162 0l205 1450h258l-172 -1217h616l-33 -233h-874z" />
<glyph unicode="M" horiz-adv-x="1896" d="M168 0l205 1450h393l244 -1016l534 1016h389l-204 -1450h-246l170 1204h-4l-611 -1204h-180l-270 1204h-4l-170 -1204h-246z" />
<glyph unicode="N" horiz-adv-x="1630" d="M162 0l205 1450h342l551 -1077h4l151 1077h258l-205 -1450h-327l-561 1112h-5l-155 -1112h-258z" />
<glyph unicode="O" horiz-adv-x="1705" d="M184 719q25 174 101.5 316.5t192.5 242.5t264.5 154.5t316.5 54.5h12q163 -1 293 -51q135 -52 223 -152t125 -242q22 -84 23 -180q0 -65 -11 -135q-25 -170 -100.5 -309t-192 -239.5t-267 -157t-320.5 -58.5q-168 0 -301 54.5t-220 153.5t-125 239q-23 85 -24 180 q0 62 10 129zM457 735q-7 -51 -7 -98q0 -62 12 -117q21 -98 76.5 -169.5t141.5 -112.5t199 -41t211 41t173.5 112.5t125 169.5t65.5 215q6 43 6 84q0 62 -14 119q-22 94 -76.5 165t-141.5 110.5t-200 39.5t-210 -39.5t-173 -110.5t-125 -165t-63 -203z" />
<glyph unicode="P" horiz-adv-x="1251" d="M162 0l205 1450h487q104 0 198.5 -20.5t161 -68.5t99.5 -129q22 -53 22 -124q0 -37 -6 -78q-18 -137 -77.5 -221t-146.5 -130t-194.5 -62.5t-222.5 -16.5h-184l-84 -600h-258zM535 821h155q55 0 115.5 4t113 24.5t90.5 61.5t48 115q3 20 3 38q0 42 -16 70 q-24 40 -66 61.5t-96.5 27.5t-105.5 6h-184z" />
<glyph unicode="Q" horiz-adv-x="1744" d="M190 756q23 160 103 294t197.5 231t263 151.5t301.5 54.5t285.5 -54.5t221 -151.5t133.5 -231q27 -87 27 -185q0 -53 -8 -109q-16 -115 -56 -202t-94.5 -153.5t-114.5 -111.5t-116 -76l-2 -4h416l-29 -209h-844q-170 0 -307 52t-229 149.5t-132 238.5q-25 87 -25 189 q0 61 9 127zM459 750q-6 -44 -6 -85q0 -64 15 -121q24 -95 79 -164t139 -108t191 -39q106 0 202.5 39t172 108t124.5 164t66 206q5 42 5 81q0 63 -13 119q-23 92 -79.5 160t-142 105.5t-196.5 37.5q-104 0 -199.5 -37.5t-169.5 -105.5t-124 -160t-64 -200z" />
<glyph unicode="R" horiz-adv-x="1290" d="M162 0l205 1450h503q104 0 198.5 -19.5t163 -66.5t102.5 -127q23 -54 23 -129q0 -35 -5 -74q-23 -158 -124.5 -264t-266.5 -129l294 -641h-311l-250 614h-188l-86 -614h-258zM537 836h200q55 0 111.5 5t104.5 24.5t83 59.5t45 111q2 17 2 33q0 41 -15 69q-21 40 -61 59.5 t-91.5 25.5t-100.5 6h-223z" />
<glyph unicode="S" d="M86 160l221 188q37 -72 107.5 -111.5t156.5 -39.5q45 0 92.5 12t87.5 36.5t68.5 62.5t34.5 87q2 15 2 29q0 40 -18 69q-24 39 -68.5 66t-104 46.5t-121 42t-118.5 51t-99 73.5q-43 44 -63 112q-12 40 -12 91q0 35 6 74q14 113 71.5 194.5t140.5 136t183.5 81t200.5 26.5 q115 0 218.5 -35t176.5 -115l-217 -198q-35 59 -98.5 86.5t-138.5 27.5q-45 0 -89 -10t-81 -32.5t-62.5 -58.5t-32.5 -85q-2 -13 -2 -26q0 -55 37 -87q45 -39 118 -67.5t159 -55t155.5 -73.5t109.5 -125q27 -53 27 -129q0 -36 -6 -78q-16 -117 -71.5 -204t-136 -144.5 t-181 -86t-207.5 -28.5q-135 0 -253.5 45t-192.5 152z" />
<glyph unicode="T" d="M184 1217l35 233h1147l-35 -233h-444l-170 -1217h-258l170 1217h-445z" />
<glyph unicode="U" horiz-adv-x="1478" d="M231 532l129 918h258l-129 -909q-4 -26 -4 -53q1 -28 5 -58q8 -58 38.5 -108t89 -81.5t150.5 -31.5t159.5 31.5t111.5 81t69 107.5t33 112l129 909h258l-129 -918q-18 -131 -77.5 -236.5t-149 -179t-202 -113.5t-237.5 -40t-225 40t-168 113.5t-98 179.5q-18 66 -18 140 q0 46 7 96z" />
<glyph unicode="V" horiz-adv-x="1366" d="M199 1450h297l239 -1096l563 1096h279l-791 -1450h-223z" />
<glyph unicode="W" horiz-adv-x="2009" d="M205 1450h282l125 -1044h4l474 1044h253l173 -1044h4l432 1044h262l-627 -1450h-246l-180 1104h-4l-491 -1104h-238z" />
<glyph unicode="X" horiz-adv-x="1402" d="M0 0l623 758l-385 692h325l266 -537l414 537h313l-573 -692l420 -758h-328l-297 612l-467 -612h-311z" />
<glyph unicode="Y" horiz-adv-x="1290" d="M176 1450h324l274 -578l443 578h307l-662 -829l-88 -621h-258l88 621z" />
<glyph unicode="Z" horiz-adv-x="1251" d="M72 0l32 233l912 984h-762l35 233h1083l-35 -233l-917 -984h792l-32 -233h-1108z" />
<glyph unicode="[" horiz-adv-x="569" d="M90 -319l256 1818h393l-22 -160h-185l-210 -1499h184l-23 -159h-393z" />
<glyph unicode="\" horiz-adv-x="796" d="M215 1487l180 65l414 -1589l-178 -61z" />
<glyph unicode="]" horiz-adv-x="569" d="M-4 -319l22 159h185l211 1499h-185l23 160h393l-256 -1818h-393z" />
<glyph unicode="^" horiz-adv-x="1363" d="M240 702l563 748h168l350 -748h-242l-231 490l-367 -490h-241z" />
<glyph unicode="_" horiz-adv-x="1024" d="M-37 -256l14 102h1024l-14 -102h-1024z" />
<glyph unicode="`" horiz-adv-x="532" d="M86 1450h279l159 -295h-192z" />
<glyph unicode="a" horiz-adv-x="1099" d="M113 270q10 80 47 136.5t90 94.5t119.5 60.5t136 33.5t140.5 14t132 3h62l4 27q2 16 2 31q0 69 -46 107q-56 46 -155 46q-78 0 -149.5 -27.5t-128.5 -74.5l-111 129q94 84 209 121t231 37q104 0 173 -23.5t111 -60.5t60 -85q19 -47 24 -97q2 -25 2 -49t-2 -47 q-5 -46 -9 -81l-80 -565h-221l18 135h-6q-63 -84 -151.5 -122t-186.5 -38q-68 0 -130 18.5t-106 55.5q-46 37 -68 93q-15 37 -15 82q0 22 4 46zM360 289q-1 -8 -1 -16q-1 -25 9 -43q12 -24 35 -40t51.5 -23t59.5 -7q127 0 195.5 60.5t83.5 164.5l8 55h-51q-51 0 -116 -4 t-123 -19.5t-100 -45t-51 -82.5z" />
<glyph unicode="b" horiz-adv-x="1290" d="M139 0l217 1548h246l-96 -690h6q23 25 54.5 50.5t75.5 48t99.5 37t124.5 14.5q104 0 186.5 -40t135.5 -110q52 -70 74 -164q13 -57 13 -119q0 -40 -5 -83q-16 -109 -62.5 -203t-119 -164t-169 -110t-208.5 -40q-104 0 -188.5 41t-125.5 131h-4l-20 -147h-234zM446 492 q-3 -22 -3 -44q-1 -34 7 -66q12 -54 43 -95t81.5 -65.5t117.5 -24.5q68 0 125 24.5t100.5 65.5t71 94.5t35.5 110.5q3 23 3 45q0 33 -7 65q-12 53 -44 94t-82 65.5t-118 24.5t-125 -24.5t-100 -65.5t-69.5 -94t-35.5 -110z" />
<glyph unicode="c" horiz-adv-x="987" d="M160 492q16 117 71.5 212t136.5 162.5t184 104.5t214 37q94 0 185 -36t151 -114l-195 -170q-37 45 -80 71.5t-92 26.5q-68 0 -125 -24.5t-100 -65.5t-69.5 -94t-34.5 -110q-3 -23 -3 -45q0 -33 7 -65q12 -54 42.5 -95t81 -65.5t117.5 -24.5q57 0 110.5 23.5t94.5 68.5 l139 -176q-43 -37 -95 -63.5t-103.5 -43t-97.5 -24t-78 -7.5q-111 0 -203 37t-154.5 104.5t-91.5 163.5q-18 60 -18 128q0 41 6 84z" />
<glyph unicode="d" horiz-adv-x="1290" d="M160 492q14 109 62 202.5t121 163.5t166 110t198 40q70 0 121 -14.5t88.5 -37t62.5 -48t41 -50.5h6l96 690h246l-217 -1548h-233l20 147h-4q-66 -90 -162 -131t-201 -41q-115 0 -198.5 40t-136 110t-72.5 164q-11 51 -12 107q0 47 8 96zM406 492q-3 -23 -3 -45 q0 -33 7 -65q12 -54 42.5 -95t81 -65.5t117.5 -24.5q68 0 125.5 24.5t100.5 65.5t70.5 94t35.5 111q3 23 3 45q0 33 -7 65q-12 53 -44 94t-82 65.5t-118 24.5t-125 -24.5t-100 -65.5t-69.5 -94t-34.5 -110z" />
<glyph unicode="e" d="M160 492q16 117 71.5 212t136.5 162.5t184 104.5t214 37q102 0 182 -36t131 -104q51 -66 71 -166q10 -52 10 -112q0 -55 -9 -117l-8 -67h-750v-11q-1 -47 15 -87q18 -44 48.5 -73.5t73.5 -46t95 -16.5q92 0 160.5 38t121.5 95l158 -133q-102 -106 -215 -151.5t-229 -45.5 q-111 0 -203 37t-154.5 104.5t-91.5 163.5q-18 60 -18 128q0 41 6 84zM418 590h504q3 22 3 41q1 80 -45 130q-56 62 -173 62q-111 0 -186 -63.5t-103 -169.5z" />
<glyph unicode="f" horiz-adv-x="720" d="M133 774l29 209h203l20 139q14 102 41 185.5t75 142.5t123.5 91t190.5 32q84 0 154 -14l-45 -209q-27 6 -50.5 10t-50.5 4q-51 0 -84.5 -16.5t-54 -44t-31 -64.5t-16.5 -78l-27 -178h228l-29 -209h-227l-109 -774h-246l109 774h-203z" />
<glyph unicode="g" horiz-adv-x="1290" d="M61 -330l177 201q66 -68 139.5 -104.5t177.5 -36.5q88 0 151.5 24.5t106.5 67.5t66.5 103.5t33.5 133.5l11 72h-4q-66 -72 -158 -107.5t-184 -35.5q-111 0 -196 40t-139.5 107.5t-76.5 159.5q-12 54 -12 113q0 41 6 84q14 109 61 202.5t119 163.5t167 110t210 40 q104 0 188 -41t125 -131h4l21 147h233l-125 -895q-18 -133 -66 -240.5t-127 -182.5t-189.5 -116t-254.5 -41q-137 0 -254.5 35t-210.5 127zM406 494q-3 -21 -3 -42q0 -36 9 -68q14 -52 47 -91t83 -61.5t111 -22.5q68 0 126.5 22.5t101.5 60.5t70.5 91t35.5 115q4 27 4 53 q0 93 -53 155q-66 80 -201 80q-66 0 -122 -21.5t-99 -59t-72.5 -92t-37.5 -119.5z" />
<glyph unicode="h" d="M139 0l217 1548h246l-98 -702h4q39 61 118 111.5t193 50.5q98 0 163 -33t99.5 -86t44.5 -123q4 -32 4 -66q0 -39 -6 -79l-88 -621h-245l69 498q6 41 9 91q1 11 1 21q0 38 -9 73q-11 44 -44 73.5t-96 29.5q-61 0 -106.5 -20.5t-77 -55t-51 -79.5t-25.5 -94l-76 -537h-246z " />
<glyph unicode="i" horiz-adv-x="532" d="M143 0l138 983h245l-137 -983h-246zM293 1317q10 59 59 103t117 44q69 0 109 -42q32 -34 32 -81q0 -12 -2 -24q-8 -63 -60 -105.5t-120 -42.5q-68 1 -106 45q-31 37 -30 83q0 10 1 20z" />
<glyph unicode="j" horiz-adv-x="532" d="M-141 -473l47 213q20 -4 37.5 -7t38.5 -3q45 0 73.5 19.5t45 50t23.5 67.5t11 72l146 1044h245l-145 -1042q-12 -92 -35.5 -171t-69 -137.5t-115 -91.5t-173.5 -33q-35 0 -67 4.5t-62 14.5zM293 1317q10 59 59 103t117 44t109 -42q32 -34 32 -81q0 -12 -2 -24 q-8 -63 -60 -105.5t-120 -42.5t-106 45q-30 36 -30 83q0 10 1 20z" />
<glyph unicode="k" horiz-adv-x="1099" d="M139 0l217 1548h246l-137 -973l436 408h316l-484 -446l373 -537h-326l-321 502h-4l-70 -502h-246z" />
<glyph unicode="l" horiz-adv-x="532" d="M143 0l217 1548h246l-217 -1548h-246z" />
<glyph unicode="m" horiz-adv-x="1781" d="M129 0l137 983h234l-21 -154h4q41 70 122 124.5t204 54.5q231 0 283 -183q66 94 151.5 138.5t196.5 44.5q98 0 160.5 -33t96.5 -91t42 -134q3 -31 4 -63q0 -49 -8 -101l-82 -586h-246l78 557q5 34 5 66q0 11 -1 21q-2 42 -17.5 74t-48 50t-88.5 18q-57 0 -100 -21.5 t-74 -57t-48 -81.5t-23 -94l-76 -532h-246l82 586q3 26 3 49q1 58 -21 97q-30 54 -121 54q-61 0 -106.5 -20.5t-77 -55t-51 -79.5t-25.5 -94l-76 -537h-246z" />
<glyph unicode="n" d="M139 0l137 983h234l-21 -158h5q43 74 122.5 128.5t202.5 54.5q98 0 163 -33t99.5 -86t44.5 -123q4 -32 4 -66q0 -39 -6 -79l-88 -621h-245l69 498q6 41 9 91q1 11 1 21q0 38 -9 73q-11 44 -44 73.5t-96 29.5q-61 0 -106.5 -20.5t-77 -55t-51 -79.5t-25.5 -94l-76 -537 h-246z" />
<glyph unicode="o" horiz-adv-x="1249" d="M160 492q16 117 71.5 212t136.5 162.5t184 104.5t214 37t203 -37t155 -105q64 -66 92 -162q18 -61 19 -131q0 -39 -6 -81q-16 -117 -71.5 -212.5t-137.5 -163t-185.5 -104.5t-213.5 -37q-111 0 -203 37t-154 104q-64 68 -92 164q-18 61 -18 131q0 39 6 81zM406 492 q-3 -23 -3 -45q0 -33 7 -65q12 -54 42.5 -95t81 -65.5t117.5 -24.5q68 0 125.5 24.5t100.5 65.5t70.5 94t35.5 111q3 23 3 45q0 33 -7 65q-12 53 -44 94t-82 65.5t-118 24.5t-125 -24.5t-100 -65.5t-69.5 -94t-34.5 -110z" />
<glyph unicode="p" horiz-adv-x="1290" d="M74 -467l202 1450h234l-21 -147h5q66 90 162 131t200 41q113 0 198 -40t138 -110t72 -164q12 -55 12 -114q0 -43 -6 -88q-16 -109 -64.5 -203t-121 -164t-166 -110t-197.5 -40q-70 0 -121 14.5t-88 37t-62.5 48t-39.5 50.5h-7l-84 -592h-245zM446 492q-3 -22 -3 -44 q0 -34 7 -66q13 -54 43.5 -95t81 -65.5t117.5 -24.5q68 0 125 24.5t100.5 65.5t71 94.5t35.5 110.5q3 23 3 45q0 33 -7 65q-12 53 -44 94t-82 65.5t-118 24.5t-125 -24.5t-100 -65.5t-69.5 -94t-35.5 -110z" />
<glyph unicode="q" horiz-adv-x="1290" d="M160 492q14 109 61 202.5t119 163.5t167 110t210 40q104 0 188 -41t125 -131h4l21 147h233l-203 -1450h-245l84 592h-6q-23 -25 -56 -50.5t-77 -48t-99 -37t-125 -14.5q-104 0 -186 40t-135.5 110t-75.5 164q-12 52 -12 110q0 45 8 93zM406 492q-3 -23 -3 -45 q0 -33 7 -65q12 -54 42.5 -95t81 -65.5t117.5 -24.5q68 0 125.5 24.5t100.5 65.5t70.5 94t35.5 111q3 23 3 45q0 33 -7 65q-12 53 -44 94t-82 65.5t-118 24.5t-125 -24.5t-100 -65.5t-69.5 -94t-34.5 -110z" />
<glyph unicode="r" horiz-adv-x="796" d="M139 0l137 983h246l-20 -156h4q53 86 135 133.5t180 47.5q23 0 44.5 -4.5t41.5 -10.5l-33 -237q-29 8 -58.5 13t-57.5 5q-86 0 -142.5 -31.5t-90 -72.5t-49 -82t-17.5 -62l-74 -526h-246z" />
<glyph unicode="s" horiz-adv-x="909" d="M70 127l184 154q41 -53 90 -87t127 -34q27 0 56.5 6t56 20.5t45 36t22.5 49.5q1 9 1 18q0 38 -28 58q-36 25 -93.5 40t-124 28.5t-122.5 43.5q-54 28 -86 82q-23 39 -23 99q0 23 3 49q12 82 54 142.5t103.5 99.5t135.5 57.5t147 18.5q98 0 189.5 -34t140.5 -116 l-184 -147q-29 49 -72 74.5t-106 25.5q-25 0 -51.5 -6t-49 -18.5t-39 -33t-20.5 -46.5q-1 -6 -1 -12q0 -35 31 -53q36 -20 93 -35t123.5 -30.5t122 -47t85.5 -87.5q22 -40 22 -100q0 -24 -3 -51q-12 -88 -59 -148.5t-112.5 -97.5t-143.5 -53.5t-154 -16.5q-115 0 -206 33 t-154 119z" />
<glyph unicode="t" horiz-adv-x="796" d="M133 774l29 209h203l41 285h245l-41 -285h271l-29 -209h-270l-60 -430q-3 -23 -3 -44q1 -44 15 -73q22 -43 103 -43q33 0 72 7.5t65 23.5l-29 -207q-41 -18 -99 -25.5t-101 -7.5q-98 0 -157.5 21.5t-89.5 65.5t-34 110q-1 16 -1 34q0 53 9 118l64 450h-203z" />
<glyph unicode="u" d="M188 217q-4 32 -3 65q0 39 5 80l86 621h246l-69 -498q-5 -41 -9 -91q-1 -12 -1 -23q1 -37 9 -71q12 -44 43 -73.5t97 -29.5q61 0 106 20.5t78 55t52.5 79.5t25.5 94l74 537h246l-138 -983h-233l22 158h-4q-45 -74 -125 -128.5t-202 -54.5q-98 0 -163 32t-100 86t-43 124z " />
<glyph unicode="v" horiz-adv-x="1062" d="M143 983h269l166 -688h4l360 688h252l-524 -983h-262z" />
<glyph unicode="w" horiz-adv-x="1630" d="M143 983h267l116 -688h4l295 688h267l116 -688h4l301 688h248l-471 -983h-243l-140 672h-4l-301 -672h-254z" />
<glyph unicode="x" horiz-adv-x="1099" d="M-2 0l469 528l-277 455h299l156 -295l254 295h281l-400 -455l322 -528h-299l-207 352l-307 -352h-291z" />
<glyph unicode="y" horiz-adv-x="1062" d="M-37 -467l62 221q29 -10 58.5 -17t61.5 -7q45 0 77 8t55.5 25.5t43 45t39.5 66.5l64 117l-281 991h271l180 -682h4l340 682h256l-631 -1194q-37 -70 -75.5 -122t-87 -88t-110 -53.5t-143.5 -17.5q-96 0 -184 25z" />
<glyph unicode="z" horiz-adv-x="987" d="M70 0l32 227l605 555v4h-502l26 197h799l-31 -223l-612 -563h557l-26 -197h-848z" />
<glyph unicode="{" horiz-adv-x="569" d="M70 500l26 180q20 0 54 6t67 21.5t59.5 44t32.5 71.5l56 406q10 70 45.5 120t82 83.5t93.5 50t80 16.5h186l-25 -172h-112q-43 0 -71 -14.5t-44 -36t-23.5 -46t-9.5 -46.5l-53 -385q-10 -59 -37.5 -98t-61.5 -63t-70 -34t-60 -12l-2 -4q25 -2 57.5 -10.5t61 -31t44 -64.5 t7.5 -113l-52 -373q-4 -23 -4 -47.5t10.5 -46t34 -35.5t66.5 -14h113l-25 -172h-186q-33 0 -76 16t-79 50t-57.5 84t-11.5 120l54 391q6 49 -11.5 80t-45 48t-60.5 23.5t-53 6.5z" />
<glyph unicode="|" horiz-adv-x="821" d="M422 -565v2263h186v-2263h-186z" />
<glyph unicode="}" horiz-adv-x="569" d="M-117 -319l25 172h112q43 0 71 14t44.5 35.5t22.5 46t10 47.5l53 385q8 59 37 98t62.5 61.5t69.5 33t61 14.5l2 4q-25 2 -58 10t-61.5 30.5t-45 64.5t-5.5 114l51 373q2 23 3 47t-9.5 45.5t-34 36t-66.5 14.5h-112l24 172h187q33 0 75.5 -16.5t78.5 -50t57.5 -84 t11.5 -119.5l-55 -391q-6 -49 12 -80t46 -48.5t59.5 -23.5t54.5 -6l-27 -180q-23 0 -55.5 -6.5t-66.5 -21.5t-59.5 -44t-31.5 -72l-55 -405q-10 -70 -46 -120t-82 -84t-93.5 -50t-79.5 -16h-187z" />
<glyph unicode="~" horiz-adv-x="1363" d="M293 612q20 33 48 65t61.5 56.5t74.5 39.5t90 15q59 0 116.5 -19t113.5 -46q53 -25 104 -49.5t92 -24.5q31 0 58.5 13.5t52 33t47.5 44t43 48.5l49 -172q-29 -33 -57.5 -64.5t-62 -56t-73.5 -40t-87 -15.5q-57 0 -104.5 19.5t-94.5 48.5t-100.5 50.5t-124.5 21.5 q-35 0 -65 -13.5t-53.5 -33t-43 -44t-35.5 -49.5z" />
<glyph unicode="&#xa1;" horiz-adv-x="606" d="M117 -455l139 998h246l-140 -998h-245zM258 848q10 66 64.5 113t121.5 47q66 0 109 -45t33 -111t-63.5 -113t-121.5 -47q-33 0 -61.5 12.5t-48 33t-28.5 49t-5 61.5z" />
<glyph unicode="&#xa2;" horiz-adv-x="1212" d="M229 494q14 106 58.5 195t113 154.5t158.5 107.5t197 57l20 137h111l-21 -137q98 -4 186.5 -35t141.5 -107l-180 -159q-33 41 -77 64.5t-99 27.5l-86 -615q57 0 112.5 27t98.5 68l127 -162q-78 -72 -174.5 -104.5t-194.5 -37.5l-21 -147h-110l20 147q-104 8 -182 52.5 t-127 113t-67.5 158.5t-4.5 195zM463 492q-16 -109 28 -194t150 -114l86 613q-117 -23 -182.5 -108t-81.5 -197z" />
<glyph unicode="&#xa3;" horiz-adv-x="1212" d="M135 0l27 197h209l63 448h-209l25 172h209l28 205q10 76 48 155.5t105 146.5t163 109t223 42q111 0 209 -32t164 -100l-191 -178q-39 41 -89 64.5t-115 23.5q-57 0 -104.5 -21.5t-82.5 -56t-57.5 -79.5t-28.5 -95l-26 -184h331l-24 -172h-332l-64 -448h519l-27 -197h-973 z" />
<glyph unicode="&#xa4;" horiz-adv-x="1212" d="M119 317l114 101q-39 66 -54 143.5t-3 165.5q12 86 49 165t94 144l-86 101l140 120l88 -98q72 47 152.5 72.5t168.5 25.5t163 -25.5t134 -72.5l113 98l106 -120l-114 -101q82 -139 57 -309q-12 -86 -49 -165t-94 -144l86 -101l-142 -122l-86 100q-72 -47 -153.5 -73.5 t-169.5 -26.5q-170 0 -295 100l-115 -100zM410 727q-20 -141 49 -226t207 -85q137 0 229 85t113 226q20 141 -49.5 225t-206.5 84t-229.5 -84t-112.5 -225z" />
<glyph unicode="&#xa5;" horiz-adv-x="1212" d="M186 362l23 160h348l14 99l-30 69h-310l23 160h221l-246 600h277l231 -602l391 602h265l-418 -600h221l-22 -160h-310l-47 -69l-14 -99h348l-23 -160h-348l-51 -362h-246l52 362h-349z" />
<glyph unicode="&#xa6;" horiz-adv-x="819" d="M422 -393v788h184v-788h-184zM422 735v793h184v-793h-184z" />
<glyph unicode="&#xa7;" horiz-adv-x="1214" d="M102 -43l234 106q6 -39 25.5 -66.5t48 -46t65.5 -27.5t74 -9q31 0 65.5 7t64.5 22.5t50.5 41t26.5 62.5q8 57 -32 94t-103.5 68t-139 62.5t-138 75.5t-99.5 106.5t-23 158.5q16 113 80 184.5t160 118.5q-59 41 -86 98.5t-17 135.5q12 86 57.5 149.5t111 105.5t143.5 62.5 t153 20.5q59 0 120 -10.5t113 -35t92 -64.5t62 -97l-231 -121q-14 61 -62.5 96t-113.5 35q-31 0 -61.5 -8t-57.5 -24.5t-44 -42t-24 -60.5q-8 -57 33 -95t104.5 -70t138.5 -64.5t136.5 -78.5t98 -111.5t22.5 -162.5q-10 -86 -69.5 -156.5t-141.5 -105.5q111 -92 92 -243 q-12 -92 -63.5 -161t-123 -114t-156.5 -66.5t-165 -21.5q-74 0 -140.5 13.5t-121.5 42t-96 76.5t-62 120zM463 664q-6 -37 6 -65t34.5 -47.5t51.5 -34.5t57 -28l185 -92q41 20 74.5 61.5t39.5 82.5q6 39 -5 65.5t-32.5 47t-49 36t-54.5 31.5l-170 86q-53 -23 -91 -53.5 t-46 -89.5z" />
<glyph unicode="&#xa8;" horiz-adv-x="532" d="M80 1303q10 59 60 103t118 44t108 -42t29 -105q-8 -63 -60 -105.5t-120 -42.5t-105.5 44.5t-29.5 103.5zM502 1303q10 59 60 103t118 44t107.5 -42t29.5 -105q-8 -63 -60 -105.5t-120 -42.5t-105.5 44.5t-29.5 103.5z" />
<glyph unicode="&#xa9;" horiz-adv-x="1638" d="M160 725q23 158 101.5 296t197.5 241.5t265 164t304 60.5t288 -60.5t219 -164t130 -241.5t18 -296t-102.5 -296t-197 -241.5t-265 -164t-305.5 -60.5t-288 60.5t-219 164t-129 241.5t-17 296zM356 725q-18 -123 10.5 -230.5t93 -187.5t162 -126t216.5 -46t228.5 46 t197.5 126t146 187.5t77 230.5q16 123 -12.5 230.5t-93 187.5t-162 126t-215.5 46q-119 0 -228.5 -46t-198 -126t-147 -187.5t-74.5 -230.5zM535 731q12 94 50 173t97 136.5t139 89t178 31.5q139 0 231.5 -73.5t94.5 -223.5h-192q-4 72 -45 98.5t-97 26.5q-119 0 -181 -71.5 t-79 -182.5q-8 -57 -1 -106t30.5 -86t61.5 -57.5t91 -20.5q66 0 117 31.5t68 111.5h192q-23 -78 -63.5 -136t-96 -98t-119 -60.5t-130.5 -20.5q-96 0 -168 33.5t-116 93t-59.5 139.5t-2.5 172z" />
<glyph unicode="&#xaa;" horiz-adv-x="714" d="M205 1051q10 72 56 112.5t109.5 61t135.5 25.5t133 5h35l2 17q6 35 -33 51t-98 16q-51 0 -95 -17t-85 -48l-72 108q59 47 136 70t159 23q147 0 203.5 -60.5t37.5 -185.5l-47 -346h-159l10 80h-4q-39 -51 -101.5 -72t-121.5 -21q-27 0 -64 7.5t-70.5 27t-54 55t-12.5 91.5 zM379 1057q-4 -31 24.5 -47.5t67.5 -16.5q88 0 128 36t48 91l2 13h-57q-25 0 -60.5 -2.5t-68.5 -10.5t-57.5 -22.5t-26.5 -40.5z" />
<glyph unicode="&#xab;" horiz-adv-x="1062" d="M133 508l375 459l139 -105l-285 -354l187 -358l-170 -105zM590 508l375 459l139 -105l-285 -354l187 -358l-170 -105z" />
<glyph unicode="&#xac;" horiz-adv-x="1363" d="M225 700l29 209h1110l-84 -608h-209l55 399h-901z" />
<glyph unicode="&#xad;" horiz-adv-x="645" d="M125 399l31 209h506l-31 -209h-506z" />
<glyph unicode="&#xae;" horiz-adv-x="1638" d="M160 725q23 158 101.5 296t197.5 241.5t265 164t304 60.5t288 -60.5t219 -164t130 -241.5t18 -296t-102.5 -296t-197 -241.5t-265 -164t-305.5 -60.5t-288 60.5t-219 164t-129 241.5t-17 296zM356 725q-18 -123 10.5 -230.5t93 -187.5t162 -126t216.5 -46t228.5 46 t197.5 126t146 187.5t77 230.5q16 123 -12.5 230.5t-93 187.5t-162 126t-215.5 46q-119 0 -228.5 -46t-198 -126t-147 -187.5t-74.5 -230.5zM573 334l113 799h256q70 0 133.5 -10.5t109.5 -36t70.5 -71.5t14.5 -118q-8 -53 -29.5 -97t-52.5 -75t-66 -50.5t-67 -23.5 l159 -317h-215l-139 307h-47l-43 -307h-197zM834 801h96q18 0 40.5 2t43 10t37 25.5t20.5 48.5t-7 48t-29.5 25.5t-40 10.5t-40.5 2h-96z" />
<glyph unicode="&#xaf;" horiz-adv-x="532" d="M111 1219l22 159h655l-22 -159h-655z" />
<glyph unicode="&#xb0;" horiz-adv-x="819" d="M244 1147q8 68 43 127t85 104t113.5 71t130.5 26q68 0 124.5 -26t94 -71t55 -104.5t9.5 -126.5q-10 -68 -45 -127t-85 -104.5t-113.5 -71t-131.5 -25.5t-124 25.5t-94 71t-55 104.5t-7 127zM403 1147q-10 -70 32 -119t112 -49q35 0 66.5 13.5t58 36t44 53t23.5 65.5 q8 70 -33.5 119t-111.5 49t-125.5 -49t-65.5 -119z" />
<glyph unicode="&#xb1;" horiz-adv-x="1363" d="M135 66l31 208h1110l-31 -208h-1110zM221 674l31 209h453l40 293h209l-41 -293h449l-31 -209h-448l-41 -293h-209l41 293h-453z" />
<glyph unicode="&#xb2;" horiz-adv-x="788" d="M147 592l27 194l412 312q33 25 64.5 53.5t35.5 58.5q6 43 -24.5 61.5t-77.5 18.5q-55 0 -94 -31.5t-50 -78.5l-194 12q29 145 131 214t241 69q135 0 215 -66t62 -197q-18 -133 -150 -223l-317 -221l-2 -4h405l-22 -172h-662z" />
<glyph unicode="&#xb3;" horiz-adv-x="788" d="M170 821l217 45q4 -47 30.5 -74.5t82.5 -27.5q55 0 96 22.5t49 75.5q6 35 -6 54.5t-35.5 28.5t-56.5 11t-66 2h-47l25 172h65q55 0 101.5 16.5t54.5 76.5q4 33 -22.5 50t-75.5 17q-47 0 -85 -23.5t-55 -66.5l-204 41q25 66 62.5 110t85.5 71.5t104.5 40t115.5 12.5 q61 0 116.5 -14.5t95.5 -43t60.5 -73t12.5 -103.5q-10 -72 -59.5 -124t-129.5 -66v-4q84 -10 122 -69.5t28 -135.5q-10 -66 -44 -115t-85 -82t-114.5 -49t-133.5 -16q-63 0 -116.5 13t-93.5 42t-64.5 75t-30.5 111z" />
<glyph unicode="&#xb4;" horiz-adv-x="532" d="M332 1155l246 295h278l-332 -295h-192z" />
<glyph unicode="&#xb5;" d="M74 -467l202 1450h246l-69 -498q-6 -41 -9.5 -91t8 -94t43 -73.5t97.5 -29.5q61 0 106 20.5t78 55t52.5 79.5t25.5 94l74 537h246l-138 -983h-233l22 158h-4q-45 -74 -125 -128.5t-202 -54.5q-66 0 -111 15l-64 -457h-245z" />
<glyph unicode="&#xb6;" horiz-adv-x="1228" d="M213 1065q14 102 59 176t115 120t161 67.5t197 21.5h551l-241 -1708h-185l220 1561h-220l-219 -1561h-184l135 950q-100 0 -178 28t-128 78t-72.5 118.5t-10.5 148.5z" />
<glyph unicode="&#xb7;" horiz-adv-x="606" d="M223 596q10 66 64.5 113t122.5 47q66 0 107.5 -45t33.5 -111q-10 -66 -64.5 -113t-121.5 -47q-33 0 -61 12.5t-47 33t-28.5 49t-5.5 61.5z" />
<glyph unicode="&#xb8;" horiz-adv-x="532" d="M47 -434l59 94q72 -41 162 -41q16 0 38 4t40.5 13.5t32.5 27t18 41.5q4 41 -28.5 57.5t-65.5 16.5q-20 0 -39.5 -4t-38.5 -11l-49 52l154 184h119l-103 -123q45 0 89 -4t77 -21.5t49.5 -51t7.5 -93.5q-8 -55 -40.5 -94t-77.5 -61.5t-97.5 -33t-97.5 -10.5q-113 0 -209 58 z" />
<glyph unicode="&#xb9;" horiz-adv-x="788" d="M254 1223l340 239h186l-121 -870h-208l90 649l-193 -154z" />
<glyph unicode="&#xba;" horiz-adv-x="813" d="M227 1171q10 68 44 123.5t86.5 95.5t117 62.5t135.5 22.5q72 0 132.5 -22.5t101.5 -62.5t60.5 -95.5t8.5 -123.5q-10 -68 -43.5 -123t-86 -95t-119 -61.5t-138.5 -21.5t-131 21.5t-100 61.5t-59.5 95.5t-8.5 122.5zM395 1171q-4 -27 3.5 -53t25.5 -48.5t49 -37t74 -14.5 t77.5 14.5t59.5 37t39 49t18 52.5q4 27 -3 54.5t-25.5 50t-49 37t-73.5 14.5t-78 -14.5t-59.5 -37t-39 -50t-18.5 -54.5z" />
<glyph unicode="&#xbb;" horiz-adv-x="1062" d="M100 150l287 354l-188 358l170 105l247 -463l-376 -459zM557 150l287 354l-189 358l170 105l248 -463l-377 -459z" />
<glyph unicode="&#xbc;" horiz-adv-x="1820" d="M231 1223l340 239h187l-121 -870h-209l90 649l-192 -154zM379 12l1063 1504l160 -78l-1063 -1504zM1063 174l22 160l461 536h230l-74 -524h108l-24 -172h-109l-24 -174h-209l24 174h-405zM1296 346h197l39 275l-2 4z" />
<glyph unicode="&#xbd;" horiz-adv-x="1820" d="M238 1223l340 239h186l-121 -870h-209l90 649l-192 -154zM383 12l1063 1504l160 -78l-1063 -1504zM1096 0l26 195l412 311q31 25 62.5 53.5t35.5 58.5q6 43 -24.5 61.5t-77.5 18.5q-55 0 -94 -31.5t-50 -78.5l-194 12q31 145 133 214t242 69q135 0 215 -65.5t61 -196.5 q-20 -133 -151 -224l-318 -221v-4h406l-25 -172h-659z" />
<glyph unicode="&#xbe;" horiz-adv-x="1820" d="M162 821l217 45q4 -47 30.5 -74.5t82.5 -27.5q55 0 96 22.5t49 75.5q6 35 -6.5 54.5t-36 28.5t-56 11t-65.5 2h-47l25 172h65q55 0 101.5 16.5t54.5 76.5q4 33 -22.5 50t-76.5 17q-47 0 -84.5 -23.5t-54.5 -66.5l-205 41q25 66 63 110t86 71.5t104.5 40t115.5 12.5 q61 0 116.5 -14.5t95.5 -43t60.5 -73t12.5 -103.5q-10 -72 -59.5 -124t-129.5 -66v-4q84 -10 122 -69.5t28 -135.5q-10 -66 -44 -115t-85 -82t-114.5 -49t-133.5 -16q-63 0 -116.5 13t-93.5 42t-64.5 75t-30.5 111zM434 12l1063 1504l160 -78l-1063 -1504zM1077 174l23 160 l461 536h229l-74 -524h107l-25 -172h-106l-25 -174h-209l25 174h-406zM1264 322h245l52 364h-5l-292 -360v-4z" />
<glyph unicode="&#xbf;" horiz-adv-x="1062" d="M43 -92q8 68 33.5 119t62.5 94t83 82t97 82q31 27 54.5 47t40 41.5t27 48.5t16.5 67l10 78h246l-17 -112q-6 -47 -15 -78t-25.5 -56.5t-41 -49t-61.5 -56.5l-180 -160q-59 -51 -70 -133q-12 -80 33 -130t125 -50q86 0 149.5 58.5t83.5 142.5l260 -21 q-51 -197 -195.5 -305.5t-340.5 -108.5q-92 0 -167 26t-126 77t-73.5 126t-8.5 171zM465 848q10 66 64.5 113t121.5 47q66 0 109 -45t33 -111t-63.5 -113t-121.5 -47q-33 0 -61.5 12.5t-48 33t-28.5 49t-5 61.5z" />
<glyph unicode="&#xc0;" horiz-adv-x="1478" d="M0 0l836 1450h223l420 -1450h-295l-88 332h-629l-178 -332h-289zM586 553h450l-141 590zM612 1843h279l162 -295h-193z" />
<glyph unicode="&#xc1;" horiz-adv-x="1478" d="M0 0l836 1450h223l420 -1450h-295l-88 332h-629l-178 -332h-289zM586 553h450l-141 590zM860 1548l244 295h278l-329 -295h-193z" />
<glyph unicode="&#xc2;" horiz-adv-x="1478" d="M0 0l836 1450h223l420 -1450h-295l-88 332h-629l-178 -332h-289zM584 1548l276 295h277l192 -295h-233l-115 185l-168 -185h-229zM586 553h450l-141 590z" />
<glyph unicode="&#xc3;" horiz-adv-x="1478" d="M0 0l836 1450h223l420 -1450h-295l-88 332h-629l-178 -332h-289zM582 1556q14 49 36.5 96.5t54.5 83.5t75 58.5t100 22.5q41 0 81 -12.5t76.5 -26t68.5 -25.5t56 -12q41 0 66 25.5t41 60.5h135q-16 -49 -37.5 -96.5t-52.5 -83t-74 -58t-100 -22.5q-41 0 -82 12t-78 26.5 t-68.5 27t-56.5 12.5q-41 0 -65.5 -27t-40.5 -62h-135zM586 553h450l-141 590z" />
<glyph unicode="&#xc4;" horiz-adv-x="1478" d="M0 0l836 1450h223l420 -1450h-295l-88 332h-629l-178 -332h-289zM586 553h450l-141 590zM608 1696q10 59 59.5 103t116.5 44q68 0 109 -42t31 -105q-8 -63 -60.5 -105.5t-120.5 -42.5t-105.5 44.5t-29.5 103.5zM1030 1696q10 59 59.5 103t116.5 44q68 0 109 -42t31 -105 q-8 -63 -60.5 -105.5t-120.5 -42.5t-105.5 44.5t-29.5 103.5z" />
<glyph unicode="&#xc5;" horiz-adv-x="1478" d="M0 0l836 1450h223l420 -1450h-295l-88 332h-629l-178 -332h-289zM586 553h450l-141 590zM764 1712q14 90 84 150.5t162 60.5t145 -58.5t41 -150.5q-14 -92 -84 -150.5t-162 -58.5t-145 58.5t-41 148.5zM864 1714q-8 -47 23 -78.5t78 -31.5t86 30.5t47 79.5q6 47 -25 79 t-78 32t-86 -32t-45 -79z" />
<glyph unicode="&#xc6;" horiz-adv-x="2048" d="M-12 0l1132 1450h1016l-35 -233h-590l-49 -357h553l-33 -233h-552l-56 -394h615l-33 -233h-873l54 381h-549l-287 -381h-313zM754 602h413l86 615h-30z" />
<glyph unicode="&#xc7;" horiz-adv-x="1402" d="M184 719q25 174 101.5 316.5t192.5 242.5t264.5 154.5t316.5 54.5q147 0 266 -52.5t209 -177.5l-221 -147q-68 86 -138.5 114.5t-146.5 28.5q-113 0 -210 -39.5t-173 -110.5t-125 -165t-63 -203q-16 -117 5 -215t76.5 -169.5t141.5 -112.5t199 -41q88 0 177 42t175 134 l190 -152q-117 -135 -263 -195.5t-306 -62.5l-70 -86q45 0 89 -4t77 -21.5t49.5 -51t8.5 -93.5q-8 -55 -41 -94t-78 -61.5t-97.5 -33t-97.5 -10.5q-113 0 -209 58l60 94q72 -41 162 -41q16 0 37.5 4t40 13.5t32.5 27t19 41.5q4 41 -29 57.5t-66 16.5q-20 0 -39.5 -4 t-37.5 -11l-50 52l127 153q-145 16 -257.5 78t-185.5 159t-103.5 227t-8.5 286z" />
<glyph unicode="&#xc8;" horiz-adv-x="1251" d="M162 0l205 1450h960l-35 -233h-702l-49 -357h665l-32 -233h-666l-55 -394h739l-33 -233h-997zM500 1843h278l162 -295h-192z" />
<glyph unicode="&#xc9;" horiz-adv-x="1251" d="M162 0l205 1450h960l-35 -233h-702l-49 -357h665l-32 -233h-666l-55 -394h739l-33 -233h-997zM748 1548l243 295h279l-330 -295h-192z" />
<glyph unicode="&#xca;" horiz-adv-x="1251" d="M162 0l205 1450h960l-35 -233h-702l-49 -357h665l-32 -233h-666l-55 -394h739l-33 -233h-997zM471 1548l277 295h276l193 -295h-234l-115 185l-168 -185h-229z" />
<glyph unicode="&#xcb;" horiz-adv-x="1251" d="M162 0l205 1450h960l-35 -233h-702l-49 -357h665l-32 -233h-666l-55 -394h739l-33 -233h-997zM496 1696q10 59 59 103t117 44t108.5 -42t30.5 -105q-8 -63 -60.5 -105.5t-119.5 -42.5q-68 0 -105.5 44.5t-29.5 103.5zM918 1696q10 59 59 103t117 44t108.5 -42t30.5 -105 q-8 -63 -60.5 -105.5t-119.5 -42.5q-68 0 -105.5 44.5t-29.5 103.5z" />
<glyph unicode="&#xcc;" horiz-adv-x="569" d="M156 0l204 1450h258l-204 -1450h-258zM158 1843h278l162 -295h-192z" />
<glyph unicode="&#xcd;" horiz-adv-x="569" d="M156 0l204 1450h258l-204 -1450h-258zM406 1548l243 295h279l-330 -295h-192z" />
<glyph unicode="&#xce;" horiz-adv-x="569" d="M129 1548l277 295h276l192 -295h-233l-115 185l-168 -185h-229zM156 0l204 1450h258l-204 -1450h-258z" />
<glyph unicode="&#xcf;" horiz-adv-x="569" d="M154 1696q10 59 59 103t117 44t108.5 -42t30.5 -105q-8 -63 -60.5 -105.5t-119.5 -42.5q-68 0 -105.5 44.5t-29.5 103.5zM156 0l204 1450h258l-204 -1450h-258zM575 1696q10 59 59.5 103t117.5 44t108.5 -42t30.5 -105q-8 -63 -60.5 -105.5t-119.5 -42.5q-68 0 -106 44.5 t-30 103.5z" />
<glyph unicode="&#xd0;" horiz-adv-x="1554" d="M121 664l22 172h136l88 614h571q143 0 269 -44t216 -134t132 -226.5t18 -320.5q-27 -186 -117 -322.5t-214 -225.5t-266 -133t-274 -44h-540l94 664h-135zM453 233h192q121 0 232.5 28t199.5 86.5t147.5 151.5t78.5 226q18 131 -9.5 225t-92 152.5t-161 86.5t-215.5 28 h-235l-53 -381h442l-23 -172h-442z" />
<glyph unicode="&#xd1;" horiz-adv-x="1630" d="M162 0l205 1450h342l551 -1077h4l151 1077h258l-205 -1450h-327l-561 1112h-5l-155 -1112h-258zM657 1556q14 49 37 96.5t54.5 83.5t74.5 58.5t101 22.5q41 0 80.5 -12.5t76.5 -26t69 -25.5t56 -12q41 0 65.5 25.5t41.5 60.5h135q-16 -49 -37.5 -96.5t-52.5 -83t-74 -58 t-100 -22.5q-41 0 -82 12t-78 26.5t-68.5 27t-56.5 12.5q-41 0 -65.5 -27t-40.5 -62h-136z" />
<glyph unicode="&#xd2;" horiz-adv-x="1705" d="M184 719q25 174 101.5 316.5t192.5 242.5t264.5 154.5t316.5 54.5q170 2 305 -50.5t223 -152.5t125 -241.5t12 -315.5q-25 -170 -100.5 -309t-192 -239.5t-267 -157t-320.5 -58.5q-168 0 -301 54.5t-220 153.5t-125.5 238.5t-13.5 309.5zM457 735q-16 -117 5 -215 t76.5 -169.5t141.5 -112.5t199 -41t211 41t173.5 112.5t125 169.5t65.5 215q14 109 -7.5 203t-76.5 165t-142 110.5t-200 39.5t-210 -39.5t-173 -110.5t-125 -165t-63 -203zM727 1843h279l161 -295h-192z" />
<glyph unicode="&#xd3;" horiz-adv-x="1705" d="M184 719q25 174 101.5 316.5t192.5 242.5t264.5 154.5t316.5 54.5q170 2 305 -50.5t223 -152.5t125 -241.5t12 -315.5q-25 -170 -100.5 -309t-192 -239.5t-267 -157t-320.5 -58.5q-168 0 -301 54.5t-220 153.5t-125.5 238.5t-13.5 309.5zM457 735q-16 -117 5 -215 t76.5 -169.5t141.5 -112.5t199 -41t211 41t173.5 112.5t125 169.5t65.5 215q14 109 -7.5 203t-76.5 165t-142 110.5t-200 39.5t-210 -39.5t-173 -110.5t-125 -165t-63 -203zM975 1548l244 295h278l-330 -295h-192z" />
<glyph unicode="&#xd4;" horiz-adv-x="1705" d="M184 719q25 174 101.5 316.5t192.5 242.5t264.5 154.5t316.5 54.5q170 2 305 -50.5t223 -152.5t125 -241.5t12 -315.5q-25 -170 -100.5 -309t-192 -239.5t-267 -157t-320.5 -58.5q-168 0 -301 54.5t-220 153.5t-125.5 238.5t-13.5 309.5zM457 735q-16 -117 5 -215 t76.5 -169.5t141.5 -112.5t199 -41t211 41t173.5 112.5t125 169.5t65.5 215q14 109 -7.5 203t-76.5 165t-142 110.5t-200 39.5t-210 -39.5t-173 -110.5t-125 -165t-63 -203zM698 1548l277 295h276l193 -295h-234l-114 185l-168 -185h-230z" />
<glyph unicode="&#xd5;" horiz-adv-x="1705" d="M184 719q25 174 101.5 316.5t192.5 242.5t264.5 154.5t316.5 54.5q170 2 305 -50.5t223 -152.5t125 -241.5t12 -315.5q-25 -170 -100.5 -309t-192 -239.5t-267 -157t-320.5 -58.5q-168 0 -301 54.5t-220 153.5t-125.5 238.5t-13.5 309.5zM457 735q-16 -117 5 -215 t76.5 -169.5t141.5 -112.5t199 -41t211 41t173.5 112.5t125 169.5t65.5 215q14 109 -7.5 203t-76.5 165t-142 110.5t-200 39.5t-210 -39.5t-173 -110.5t-125 -165t-63 -203zM696 1556q14 49 37 96.5t54.5 83.5t74.5 58.5t101 22.5q41 0 80.5 -12.5t76.5 -26t69 -25.5t56 -12 q41 0 65.5 25.5t41.5 60.5h135q-16 -49 -38 -96.5t-52.5 -83t-73.5 -58t-100 -22.5q-41 0 -82 12t-78 26.5t-68.5 27t-56.5 12.5q-41 0 -65.5 -27t-41.5 -62h-135z" />
<glyph unicode="&#xd6;" horiz-adv-x="1705" d="M184 719q25 174 101.5 316.5t192.5 242.5t264.5 154.5t316.5 54.5q170 2 305 -50.5t223 -152.5t125 -241.5t12 -315.5q-25 -170 -100.5 -309t-192 -239.5t-267 -157t-320.5 -58.5q-168 0 -301 54.5t-220 153.5t-125.5 238.5t-13.5 309.5zM457 735q-16 -117 5 -215 t76.5 -169.5t141.5 -112.5t199 -41t211 41t173.5 112.5t125 169.5t65.5 215q14 109 -7.5 203t-76.5 165t-142 110.5t-200 39.5t-210 -39.5t-173 -110.5t-125 -165t-63 -203zM723 1696q10 59 59 103t117 44t109 -42t30 -105q-8 -63 -60 -105.5t-120 -42.5t-105.5 44.5 t-29.5 103.5zM1145 1696q10 59 59 103t117 44t108.5 -42t30.5 -105q-8 -63 -60 -105.5t-120 -42.5t-105.5 44.5t-29.5 103.5z" />
<glyph unicode="&#xd7;" horiz-adv-x="1363" d="M193 242l430 372l-324 381l168 146l324 -375l423 373l123 -144l-422 -370l326 -381l-174 -152l-322 371l-423 -371z" />
<glyph unicode="&#xd8;" horiz-adv-x="1705" d="M92 14l205 193q-74 98 -104.5 227t-8.5 285q25 174 101.5 316.5t192.5 242.5t264.5 154.5t316.5 54.5q137 4 250.5 -32t201.5 -101l205 192l88 -88l-202 -192q82 -100 113.5 -236.5t8.5 -302.5q-25 -170 -100.5 -309t-192 -239.5t-267 -157t-320.5 -58.5q-141 0 -258 40 t-203 112l-201 -189zM457 735q-12 -96 1 -180t48 -152l803 758q-115 92 -281 92q-113 0 -210 -39.5t-173 -110.5t-125 -165t-63 -203zM584 303q55 -51 128.5 -78.5t166.5 -27.5q113 0 211 41t173.5 112.5t125 169.5t65.5 215q29 199 -63 332z" />
<glyph unicode="&#xd9;" horiz-adv-x="1478" d="M231 532l129 918h258l-129 -909q-8 -53 0.5 -111.5t39 -108t89 -81t150.5 -31.5t159.5 31.5t111.5 81t69 107.5t33 112l129 909h258l-129 -918q-18 -131 -77.5 -236.5t-149 -179t-202 -113.5t-237.5 -40t-225 40t-168 113.5t-97.5 179t-11.5 236.5zM612 1843h279 l162 -295h-193z" />
<glyph unicode="&#xda;" horiz-adv-x="1478" d="M231 532l129 918h258l-129 -909q-8 -53 0.5 -111.5t39 -108t89 -81t150.5 -31.5t159.5 31.5t111.5 81t69 107.5t33 112l129 909h258l-129 -918q-18 -131 -77.5 -236.5t-149 -179t-202 -113.5t-237.5 -40t-225 40t-168 113.5t-97.5 179t-11.5 236.5zM860 1548l244 295h278 l-329 -295h-193z" />
<glyph unicode="&#xdb;" horiz-adv-x="1478" d="M231 532l129 918h258l-129 -909q-8 -53 0.5 -111.5t39 -108t89 -81t150.5 -31.5t159.5 31.5t111.5 81t69 107.5t33 112l129 909h258l-129 -918q-18 -131 -77.5 -236.5t-149 -179t-202 -113.5t-237.5 -40t-225 40t-168 113.5t-97.5 179t-11.5 236.5zM584 1548l276 295h277 l192 -295h-233l-115 185l-168 -185h-229z" />
<glyph unicode="&#xdc;" horiz-adv-x="1478" d="M231 532l129 918h258l-129 -909q-8 -53 0.5 -111.5t39 -108t89 -81t150.5 -31.5t159.5 31.5t111.5 81t69 107.5t33 112l129 909h258l-129 -918q-18 -131 -77.5 -236.5t-149 -179t-202 -113.5t-237.5 -40t-225 40t-168 113.5t-97.5 179t-11.5 236.5zM608 1696 q10 59 59.5 103t116.5 44q68 0 109 -42t31 -105q-8 -63 -60.5 -105.5t-120.5 -42.5t-105.5 44.5t-29.5 103.5zM1030 1696q10 59 59.5 103t116.5 44q68 0 109 -42t31 -105q-8 -63 -60.5 -105.5t-120.5 -42.5t-105.5 44.5t-29.5 103.5z" />
<glyph unicode="&#xdd;" horiz-adv-x="1290" d="M176 1450h324l274 -578l443 578h307l-662 -829l-88 -621h-258l88 621zM766 1548l244 295h278l-330 -295h-192z" />
<glyph unicode="&#xde;" horiz-adv-x="1251" d="M162 0l205 1450h258l-41 -281h229q104 0 198.5 -20.5t162 -68.5t100.5 -129t14 -201q-18 -137 -77.5 -221.5t-145.5 -130.5t-193.5 -62.5t-222.5 -16.5h-184l-45 -319h-258zM496 541h155q55 0 115.5 4t113 24.5t90.5 61.5t48 114q8 68 -14.5 108t-64.5 61.5t-96.5 27.5 t-105.5 6h-184z" />
<glyph unicode="&#xdf;" horiz-adv-x="1251" d="M115 0l147 1047q39 279 178.5 402.5t386.5 123.5q88 0 166 -23.5t132.5 -71.5t80 -119t13.5 -165q-16 -113 -84 -197t-179 -127l-2 -4q80 -10 136.5 -47t90 -93t44 -128t0.5 -152q-16 -104 -64.5 -191t-121 -149.5t-166 -96.5t-197.5 -34q-43 0 -85 5.5t-83 17.5l29 207 q27 -12 53 -16.5t57 -4.5q129 0 222.5 76t111.5 207q20 145 -56.5 219t-213.5 74h-29l29 209h16q92 0 159.5 50t82.5 142q10 86 -42.5 138.5t-138.5 52.5q-123 0 -190.5 -71t-81.5 -177l-156 -1104h-245z" />
<glyph unicode="&#xe0;" horiz-adv-x="1099" d="M113 270q10 80 47 136.5t90 94.5t119.5 60.5t136 33.5t140.5 14t132 3h62l4 27q12 92 -44.5 138t-154.5 46q-78 0 -149.5 -27.5t-128.5 -74.5l-111 129q94 84 209 121t231 37q104 0 173 -23.5t111 -60.5t60.5 -85t23.5 -97.5t0 -95.5t-9 -81l-80 -565h-221l18 135h-6 q-63 -84 -151.5 -122t-186.5 -38q-68 0 -130 18.5t-106.5 55.5t-67 92.5t-11.5 128.5zM360 289q-4 -35 8.5 -58.5t35 -40t51 -23.5t59.5 -7q127 0 195.5 60.5t83.5 164.5l8 55h-51q-51 0 -116 -4t-123 -19.5t-100 -45t-51 -82.5zM371 1450h278l160 -295h-193z" />
<glyph unicode="&#xe1;" horiz-adv-x="1099" d="M113 270q10 80 47 136.5t90 94.5t119.5 60.5t136 33.5t140.5 14t132 3h62l4 27q12 92 -44.5 138t-154.5 46q-78 0 -149.5 -27.5t-128.5 -74.5l-111 129q94 84 209 121t231 37q104 0 173 -23.5t111 -60.5t60.5 -85t23.5 -97.5t0 -95.5t-9 -81l-80 -565h-221l18 135h-6 q-63 -84 -151.5 -122t-186.5 -38q-68 0 -130 18.5t-106.5 55.5t-67 92.5t-11.5 128.5zM360 289q-4 -35 8.5 -58.5t35 -40t51 -23.5t59.5 -7q127 0 195.5 60.5t83.5 164.5l8 55h-51q-51 0 -116 -4t-123 -19.5t-100 -45t-51 -82.5zM616 1155l246 295h279l-332 -295h-193z" />
<glyph unicode="&#xe2;" horiz-adv-x="1099" d="M113 270q10 80 47 136.5t90 94.5t119.5 60.5t136 33.5t140.5 14t132 3h62l4 27q12 92 -44.5 138t-154.5 46q-78 0 -149.5 -27.5t-128.5 -74.5l-111 129q94 84 209 121t231 37q104 0 173 -23.5t111 -60.5t60.5 -85t23.5 -97.5t0 -95.5t-9 -81l-80 -565h-221l18 135h-6 q-63 -84 -151.5 -122t-186.5 -38q-68 0 -130 18.5t-106.5 55.5t-67 92.5t-11.5 128.5zM340 1155l278 295h277l190 -295h-233l-115 184l-168 -184h-229zM360 289q-4 -35 8.5 -58.5t35 -40t51 -23.5t59.5 -7q127 0 195.5 60.5t83.5 164.5l8 55h-51q-51 0 -116 -4t-123 -19.5 t-100 -45t-51 -82.5z" />
<glyph unicode="&#xe3;" horiz-adv-x="1099" d="M113 270q10 80 47 136.5t90 94.5t119.5 60.5t136 33.5t140.5 14t132 3h62l4 27q12 92 -44.5 138t-154.5 46q-78 0 -149.5 -27.5t-128.5 -74.5l-111 129q94 84 209 121t231 37q104 0 173 -23.5t111 -60.5t60.5 -85t23.5 -97.5t0 -95.5t-9 -81l-80 -565h-221l18 135h-6 q-63 -84 -151.5 -122t-186.5 -38q-68 0 -130 18.5t-106.5 55.5t-67 92.5t-11.5 128.5zM338 1163q14 49 36.5 96.5t54.5 83t75 58t100 22.5q41 0 81 -12t77 -25.5t68.5 -25.5t56.5 -12q41 0 65.5 25.5t40.5 60.5h135q-16 -49 -37.5 -96.5t-52 -83t-73.5 -58t-101 -22.5 q-41 0 -82 12t-77.5 26.5t-68.5 26.5t-56 12q-41 0 -66 -26.5t-41 -61.5h-135zM360 289q-4 -35 8.5 -58.5t35 -40t51 -23.5t59.5 -7q127 0 195.5 60.5t83.5 164.5l8 55h-51q-51 0 -116 -4t-123 -19.5t-100 -45t-51 -82.5z" />
<glyph unicode="&#xe4;" horiz-adv-x="1099" d="M113 270q10 80 47 136.5t90 94.5t119.5 60.5t136 33.5t140.5 14t132 3h62l4 27q12 92 -44.5 138t-154.5 46q-78 0 -149.5 -27.5t-128.5 -74.5l-111 129q94 84 209 121t231 37q104 0 173 -23.5t111 -60.5t60.5 -85t23.5 -97.5t0 -95.5t-9 -81l-80 -565h-221l18 135h-6 q-63 -84 -151.5 -122t-186.5 -38q-68 0 -130 18.5t-106.5 55.5t-67 92.5t-11.5 128.5zM360 289q-4 -35 8.5 -58.5t35 -40t51 -23.5t59.5 -7q127 0 195.5 60.5t83.5 164.5l8 55h-51q-51 0 -116 -4t-123 -19.5t-100 -45t-51 -82.5zM365 1303q10 59 60 103t118 44t107.5 -42 t29.5 -105q-8 -63 -60.5 -105.5t-119.5 -42.5q-68 0 -105.5 44.5t-29.5 103.5zM786 1303q10 59 60.5 103t118.5 44t107.5 -42t29.5 -105q-8 -63 -60.5 -105.5t-119.5 -42.5q-68 0 -106 44.5t-30 103.5z" />
<glyph unicode="&#xe5;" horiz-adv-x="1099" d="M113 270q10 80 47 136.5t90 94.5t119.5 60.5t136 33.5t140.5 14t132 3h62l4 27q12 92 -44.5 138t-154.5 46q-78 0 -149.5 -27.5t-128.5 -74.5l-111 129q94 84 209 121t231 37q104 0 173 -23.5t111 -60.5t60.5 -85t23.5 -97.5t0 -95.5t-9 -81l-80 -565h-221l18 135h-6 q-63 -84 -151.5 -122t-186.5 -38q-68 0 -130 18.5t-106.5 55.5t-67 92.5t-11.5 128.5zM360 289q-4 -35 8.5 -58.5t35 -40t51 -23.5t59.5 -7q127 0 195.5 60.5t83.5 164.5l8 55h-51q-51 0 -116 -4t-123 -19.5t-100 -45t-51 -82.5zM524 1339q6 45 27.5 84t54.5 67t74 44t88 16 q92 0 145 -58.5t41 -150.5t-81.5 -150t-161.5 -58t-145.5 58t-41.5 148zM623 1341q-6 -47 23.5 -78.5t76.5 -31.5t87 30.5t46 79.5q6 47 -23.5 79t-76.5 32t-87 -31.5t-46 -79.5z" />
<glyph unicode="&#xe6;" horiz-adv-x="1744" d="M113 272q25 174 157.5 246t360.5 72h200q16 109 -29.5 172t-156.5 63q-78 0 -149.5 -27.5t-126.5 -74.5l-113 129q94 84 209 121t231 37q88 4 172 -32t133 -114q68 66 150 106t188 38q119 0 203 -41t132 -112t63.5 -166t1.5 -204l-8 -67h-717q-10 -59 5 -107.5t46 -82 t72 -51t80 -17.5q92 0 159.5 38t120.5 95l154 -121q-98 -104 -212 -150.5t-249 -46.5q-125 0 -212 51.5t-130 125.5q-78 -100 -187.5 -137.5t-232.5 -37.5q-66 0 -127 17.5t-106 53.5t-69 91.5t-13 132.5zM360 289q-6 -35 8.5 -59.5t38 -40t52 -21.5t53.5 -6 q61 0 112.5 20.5t89.5 52t61.5 73.5t29.5 85l4 25h-123q-51 0 -106.5 -5t-102.5 -18.5t-78.5 -39t-38.5 -66.5zM1040 590h476q10 104 -42.5 168.5t-160.5 64.5q-102 0 -176 -65.5t-97 -167.5z" />
<glyph unicode="&#xe7;" horiz-adv-x="987" d="M160 492q16 117 71.5 212t136.5 162.5t184 104.5t214 37q94 0 185 -36t151 -114l-195 -170q-37 45 -80 71.5t-92 26.5q-68 0 -125 -24.5t-100 -65.5t-69.5 -94t-34.5 -110t4 -110.5t42.5 -94.5t81 -65.5t117.5 -24.5q57 0 110.5 23.5t94.5 68.5l139 -176 q-43 -37 -94 -62.5t-101 -43t-96.5 -25t-78.5 -7.5l-82 -98q45 0 89 -4t76.5 -21.5t49 -51t8.5 -93.5q-8 -55 -41 -94t-78 -61.5t-97 -33t-97 -10.5q-113 0 -209 58l59 94q72 -41 162 -41q16 0 37.5 4t40 13.5t33 27t18.5 41.5q4 41 -29 57.5t-65 16.5q-20 0 -40 -4t-38 -11 l-49 52l141 170q-90 16 -161.5 59t-119 108.5t-68 150.5t-5.5 188z" />
<glyph unicode="&#xe8;" d="M160 492q16 117 71.5 212t136.5 162.5t184 104.5t214 37q102 0 182 -36t131 -103.5t70.5 -167t1.5 -228.5l-8 -67h-750q-2 -55 15.5 -98.5t48 -73t73.5 -46t95 -16.5q92 0 160.5 38t121.5 95l158 -133q-102 -106 -215 -151.5t-229 -45.5q-111 0 -203 37t-154.5 104.5 t-91.5 163t-12 212.5zM408 1450h278l160 -295h-193zM418 590h504q14 109 -42.5 171t-172.5 62q-111 0 -186 -63.5t-103 -169.5z" />
<glyph unicode="&#xe9;" d="M160 492q16 117 71.5 212t136.5 162.5t184 104.5t214 37q102 0 182 -36t131 -103.5t70.5 -167t1.5 -228.5l-8 -67h-750q-2 -55 15.5 -98.5t48 -73t73.5 -46t95 -16.5q92 0 160.5 38t121.5 95l158 -133q-102 -106 -215 -151.5t-229 -45.5q-111 0 -203 37t-154.5 104.5 t-91.5 163t-12 212.5zM418 590h504q14 109 -42.5 171t-172.5 62q-111 0 -186 -63.5t-103 -169.5zM653 1155l246 295h279l-332 -295h-193z" />
<glyph unicode="&#xea;" d="M160 492q16 117 71.5 212t136.5 162.5t184 104.5t214 37q102 0 182 -36t131 -103.5t70.5 -167t1.5 -228.5l-8 -67h-750q-2 -55 15.5 -98.5t48 -73t73.5 -46t95 -16.5q92 0 160.5 38t121.5 95l158 -133q-102 -106 -215 -151.5t-229 -45.5q-111 0 -203 37t-154.5 104.5 t-91.5 163t-12 212.5zM377 1155l278 295h277l190 -295h-233l-115 184l-168 -184h-229zM418 590h504q14 109 -42.5 171t-172.5 62q-111 0 -186 -63.5t-103 -169.5z" />
<glyph unicode="&#xeb;" d="M160 492q16 117 71.5 212t136.5 162.5t184 104.5t214 37q102 0 182 -36t131 -103.5t70.5 -167t1.5 -228.5l-8 -67h-750q-2 -55 15.5 -98.5t48 -73t73.5 -46t95 -16.5q92 0 160.5 38t121.5 95l158 -133q-102 -106 -215 -151.5t-229 -45.5q-111 0 -203 37t-154.5 104.5 t-91.5 163t-12 212.5zM401 1303q10 59 60.5 103t118.5 44t107.5 -42t29.5 -105q-8 -63 -60.5 -105.5t-119.5 -42.5q-68 0 -106 44.5t-30 103.5zM418 590h504q14 109 -42.5 171t-172.5 62q-111 0 -186 -63.5t-103 -169.5zM823 1303q10 59 60.5 103t117.5 44q68 0 108 -42 t30 -105q-8 -63 -60.5 -105.5t-120.5 -42.5t-105.5 44.5t-29.5 103.5z" />
<glyph unicode="&#xec;" horiz-adv-x="532" d="M111 1450h278l160 -295h-193zM143 0l138 983h245l-137 -983h-246z" />
<glyph unicode="&#xed;" horiz-adv-x="532" d="M143 0l138 983h245l-137 -983h-246zM307 1155l246 295h278l-331 -295h-193z" />
<glyph unicode="&#xee;" horiz-adv-x="532" d="M55 1155l279 295h276l191 -295h-234l-114 184l-168 -184h-230zM143 0l138 983h245l-137 -983h-246z" />
<glyph unicode="&#xef;" horiz-adv-x="532" d="M80 1303q10 59 60 103t118 44t108 -42t29 -105q-8 -63 -60 -105.5t-120 -42.5t-105.5 44.5t-29.5 103.5zM143 0l138 983h245l-137 -983h-246zM502 1303q10 59 60 103t118 44t107.5 -42t29.5 -105q-8 -63 -60 -105.5t-120 -42.5t-105.5 44.5t-29.5 103.5z" />
<glyph unicode="&#xf0;" horiz-adv-x="1249" d="M160 492q16 117 70.5 212t134 162.5t178 104.5t202.5 37q68 0 126.5 -17.5t97.5 -60.5l4 4q-41 86 -96.5 161.5t-118.5 149.5l-4 6l-232 -100l-106 117l233 102q-12 14 -29.5 31.5t-38 36t-39 36t-32.5 29.5l221 119q49 -43 91 -87t63 -67l241 105l115 -115l-256 -110 q63 -80 116.5 -169t89.5 -186.5t50 -204t-2 -221.5q-18 -129 -67.5 -237.5t-128 -187.5t-185 -123t-237.5 -44q-111 0 -203 37t-154.5 104.5t-91.5 163t-12 212.5zM406 492q-8 -57 4 -110.5t42.5 -94.5t80.5 -65.5t118 -24.5t125.5 24.5t100.5 65.5t70.5 94t35.5 111 q8 57 -4 110t-44 94t-82 65.5t-118 24.5t-125 -24.5t-100 -65.5t-69.5 -94t-34.5 -110z" />
<glyph unicode="&#xf1;" d="M139 0l137 983h234l-21 -158h5q43 74 122.5 128.5t202.5 54.5q98 0 163 -33t99.5 -86t44 -123t-1.5 -145l-88 -621h-245l69 498q6 41 9 91t-8 94t-44 73.5t-96 29.5q-61 0 -106.5 -20.5t-77 -55t-51 -79.5t-25.5 -94l-76 -537h-246zM375 1163q14 49 36.5 96.5t54.5 83 t75 58t100 22.5q41 0 81 -12t77 -25.5t68.5 -25.5t56.5 -12q41 0 65.5 25.5t40.5 60.5h135q-16 -49 -37.5 -96.5t-52.5 -83t-74 -58t-100 -22.5q-41 0 -82 12t-77.5 26.5t-68.5 26.5t-57 12q-41 0 -65.5 -26.5t-40.5 -61.5h-135z" />
<glyph unicode="&#xf2;" horiz-adv-x="1249" d="M160 492q16 117 71.5 212t136.5 162.5t184 104.5t214 37t203 -37t155.5 -104.5t92 -163t12.5 -211.5q-16 -117 -71.5 -212.5t-137.5 -163t-185.5 -104.5t-213.5 -37q-111 0 -203 37t-154.5 104.5t-91 163t-12.5 212.5zM406 492q-8 -57 4 -110.5t42.5 -94.5t81 -65.5 t117.5 -24.5q68 0 125.5 24.5t100.5 65.5t70.5 94t35.5 111q8 57 -4 110t-44 94t-82 65.5t-118 24.5t-125 -24.5t-100 -65.5t-69.5 -94t-34.5 -110zM444 1450h279l160 -295h-193z" />
<glyph unicode="&#xf3;" horiz-adv-x="1249" d="M160 492q16 117 71.5 212t136.5 162.5t184 104.5t214 37t203 -37t155.5 -104.5t92 -163t12.5 -211.5q-16 -117 -71.5 -212.5t-137.5 -163t-185.5 -104.5t-213.5 -37q-111 0 -203 37t-154.5 104.5t-91 163t-12.5 212.5zM406 492q-8 -57 4 -110.5t42.5 -94.5t81 -65.5 t117.5 -24.5q68 0 125.5 24.5t100.5 65.5t70.5 94t35.5 111q8 57 -4 110t-44 94t-82 65.5t-118 24.5t-125 -24.5t-100 -65.5t-69.5 -94t-34.5 -110zM690 1155l246 295h278l-331 -295h-193z" />
<glyph unicode="&#xf4;" horiz-adv-x="1249" d="M160 492q16 117 71.5 212t136.5 162.5t184 104.5t214 37t203 -37t155.5 -104.5t92 -163t12.5 -211.5q-16 -117 -71.5 -212.5t-137.5 -163t-185.5 -104.5t-213.5 -37q-111 0 -203 37t-154.5 104.5t-91 163t-12.5 212.5zM406 492q-8 -57 4 -110.5t42.5 -94.5t81 -65.5 t117.5 -24.5q68 0 125.5 24.5t100.5 65.5t70.5 94t35.5 111q8 57 -4 110t-44 94t-82 65.5t-118 24.5t-125 -24.5t-100 -65.5t-69.5 -94t-34.5 -110zM414 1155l278 295h277l190 -295h-233l-115 184l-168 -184h-229z" />
<glyph unicode="&#xf5;" horiz-adv-x="1249" d="M160 492q16 117 71.5 212t136.5 162.5t184 104.5t214 37t203 -37t155.5 -104.5t92 -163t12.5 -211.5q-16 -117 -71.5 -212.5t-137.5 -163t-185.5 -104.5t-213.5 -37q-111 0 -203 37t-154.5 104.5t-91 163t-12.5 212.5zM406 492q-8 -57 4 -110.5t42.5 -94.5t81 -65.5 t117.5 -24.5q68 0 125.5 24.5t100.5 65.5t70.5 94t35.5 111q8 57 -4 110t-44 94t-82 65.5t-118 24.5t-125 -24.5t-100 -65.5t-69.5 -94t-34.5 -110zM412 1163q14 49 36.5 96.5t54.5 83t75 58t100 22.5q41 0 81 -12t76.5 -25.5t68.5 -25.5t57 -12q41 0 65.5 25.5t40.5 60.5 h135q-16 -49 -37.5 -96.5t-52.5 -83t-74 -58t-100 -22.5q-41 0 -82 12t-78 26.5t-68.5 26.5t-56.5 12q-41 0 -65.5 -26.5t-40.5 -61.5h-135z" />
<glyph unicode="&#xf6;" horiz-adv-x="1249" d="M160 492q16 117 71.5 212t136.5 162.5t184 104.5t214 37t203 -37t155.5 -104.5t92 -163t12.5 -211.5q-16 -117 -71.5 -212.5t-137.5 -163t-185.5 -104.5t-213.5 -37q-111 0 -203 37t-154.5 104.5t-91 163t-12.5 212.5zM406 492q-8 -57 4 -110.5t42.5 -94.5t81 -65.5 t117.5 -24.5q68 0 125.5 24.5t100.5 65.5t70.5 94t35.5 111q8 57 -4 110t-44 94t-82 65.5t-118 24.5t-125 -24.5t-100 -65.5t-69.5 -94t-34.5 -110zM438 1303q10 59 60.5 103t117.5 44q68 0 108 -42t30 -105q-8 -63 -60.5 -105.5t-120.5 -42.5t-105.5 44.5t-29.5 103.5z M860 1303q10 59 60.5 103t117.5 44q68 0 108 -42t30 -105q-8 -63 -60.5 -105.5t-120.5 -42.5t-105.5 44.5t-29.5 103.5z" />
<glyph unicode="&#xf7;" horiz-adv-x="1363" d="M199 516l30 209h1110l-30 -209h-1110zM563 252q10 63 61.5 108.5t114.5 45.5t102.5 -45.5t28.5 -108.5q-8 -63 -59 -108.5t-115 -45.5q-63 0 -102 45.5t-31 108.5zM668 989q10 63 60 108.5t114 45.5q63 0 103 -45t30 -109q-10 -63 -61.5 -108t-114.5 -45t-102 45t-29 108 z" />
<glyph unicode="&#xf8;" horiz-adv-x="1249" d="M76 14l157 140q-49 66 -69.5 150.5t-3.5 187.5q16 117 71.5 212t136.5 162.5t184 104.5t214 37q94 0 175 -27t140 -76l166 148l76 -82l-164 -146q45 -66 64.5 -149.5t5.5 -183.5q-16 -117 -71.5 -212.5t-137.5 -163t-185.5 -104.5t-213.5 -37q-94 0 -173 27t-139 74 l-164 -146zM406 492q-12 -90 22 -164l463 409q-61 49 -156 49q-68 0 -125 -24.5t-100 -65.5t-69.5 -94t-34.5 -110zM500 244q59 -47 151 -47q68 0 125.5 24.5t100.5 65.5t70.5 94t35.5 111q12 84 -20 159z" />
<glyph unicode="&#xf9;" d="M188.5 217q-8.5 70 1.5 145l86 621h246l-69 -498q-6 -41 -9.5 -91t8 -94t43 -73.5t97.5 -29.5q61 0 106 20.5t78 55t52.5 79.5t25.5 94l74 537h246l-138 -983h-233l22 158h-4q-45 -74 -125 -128.5t-202 -54.5q-98 0 -163 32t-99.5 86t-43 124zM408 1450h278l160 -295 h-193z" />
<glyph unicode="&#xfa;" d="M188.5 217q-8.5 70 1.5 145l86 621h246l-69 -498q-6 -41 -9.5 -91t8 -94t43 -73.5t97.5 -29.5q61 0 106 20.5t78 55t52.5 79.5t25.5 94l74 537h246l-138 -983h-233l22 158h-4q-45 -74 -125 -128.5t-202 -54.5q-98 0 -163 32t-99.5 86t-43 124zM653 1155l246 295h279 l-332 -295h-193z" />
<glyph unicode="&#xfb;" d="M188.5 217q-8.5 70 1.5 145l86 621h246l-69 -498q-6 -41 -9.5 -91t8 -94t43 -73.5t97.5 -29.5q61 0 106 20.5t78 55t52.5 79.5t25.5 94l74 537h246l-138 -983h-233l22 158h-4q-45 -74 -125 -128.5t-202 -54.5q-98 0 -163 32t-99.5 86t-43 124zM377 1155l278 295h277 l190 -295h-233l-115 184l-168 -184h-229z" />
<glyph unicode="&#xfc;" d="M188.5 217q-8.5 70 1.5 145l86 621h246l-69 -498q-6 -41 -9.5 -91t8 -94t43 -73.5t97.5 -29.5q61 0 106 20.5t78 55t52.5 79.5t25.5 94l74 537h246l-138 -983h-233l22 158h-4q-45 -74 -125 -128.5t-202 -54.5q-98 0 -163 32t-99.5 86t-43 124zM401 1303q10 59 60.5 103 t118.5 44t107.5 -42t29.5 -105q-8 -63 -60.5 -105.5t-119.5 -42.5q-68 0 -106 44.5t-30 103.5zM823 1303q10 59 60.5 103t117.5 44q68 0 108 -42t30 -105q-8 -63 -60.5 -105.5t-120.5 -42.5t-105.5 44.5t-29.5 103.5z" />
<glyph unicode="&#xfd;" horiz-adv-x="1062" d="M-37 -467l62 221q29 -10 58.5 -17t61.5 -7q45 0 77 8t55.5 25.5t43 45t39.5 66.5l64 117l-281 991h271l180 -682h4l340 682h256l-631 -1194q-37 -70 -75.5 -122t-87 -88t-110 -53.5t-143.5 -17.5q-96 0 -184 25zM598 1155l246 295h278l-331 -295h-193z" />
<glyph unicode="&#xfe;" horiz-adv-x="1290" d="M74 -467l282 2015h246l-96 -692h4q53 74 147.5 113t198.5 39q113 0 198 -40t138 -110t72.5 -164t5.5 -202q-16 -109 -64.5 -203t-121 -164t-166 -110t-197.5 -40q-70 0 -121 14.5t-88 37t-62.5 48t-39.5 50.5h-7l-84 -592h-245zM446 492q-8 -57 4.5 -110.5t43 -94.5 t81 -65.5t117.5 -24.5q68 0 125 24.5t100.5 65.5t71 94.5t35.5 110.5t-4 110t-44 94t-82 65.5t-118 24.5t-125 -24.5t-100 -65.5t-69.5 -94t-35.5 -110z" />
<glyph unicode="&#xff;" horiz-adv-x="1062" d="M-37 -467l62 221q29 -10 58.5 -17t61.5 -7q45 0 77 8t55.5 25.5t43 45t39.5 66.5l64 117l-281 991h271l180 -682h4l340 682h256l-631 -1194q-37 -70 -75.5 -122t-87 -88t-110 -53.5t-143.5 -17.5q-96 0 -184 25zM346 1303q10 59 60.5 103t117.5 44q68 0 108 -42t30 -105 q-8 -63 -60.5 -105.5t-120.5 -42.5t-105.5 44.5t-29.5 103.5zM768 1303q10 59 60.5 103t117.5 44q68 0 108 -42t29 -105q-8 -63 -60 -105.5t-120 -42.5t-105.5 44.5t-29.5 103.5z" />
<glyph unicode="&#x152;" horiz-adv-x="2048" d="M205 725q20 156 95 288t194.5 229t280.5 152.5t358 55.5h983l-35 -233h-590l-49 -357h553l-33 -233h-553l-55 -394h624l-32 -233h-1018q-197 0 -342.5 55.5t-237.5 153.5t-129 230t-14 286zM487 725q-14 -98 2.5 -174t54.5 -130t91 -90t111.5 -57.5t116 -31t104.5 -9.5 h129l137 984h-129q-47 0 -107.5 -9.5t-124 -31t-127 -57.5t-115.5 -90t-90 -130t-53 -174z" />
<glyph unicode="&#x153;" horiz-adv-x="1896" d="M143 492q16 117 71.5 212t136.5 162.5t184.5 104.5t214.5 37t201.5 -39t152.5 -121q78 82 177 121t210 39q119 0 203 -41t132 -112t63.5 -166t0.5 -204l-8 -67h-717q-10 -55 6.5 -100.5t47 -78t71.5 -50t80 -17.5q92 0 159.5 38t121.5 95l153 -121q-98 -115 -212.5 -162 t-250.5 -47q-123 0 -208.5 41t-133.5 117q-86 -82 -186 -120t-209 -38q-111 0 -203 37t-154.5 104.5t-91 163t-12.5 212.5zM389 492q-10 -61 2 -118t44 -99t82 -66.5t118 -24.5q70 0 127 24.5t100 66.5t71 98.5t38 118.5q8 61 -4.5 117.5t-44 98.5t-81.5 66.5t-120 24.5 q-68 0 -125 -24.5t-100 -66.5t-71 -98.5t-36 -117.5zM1180 590h479q14 109 -40 171t-153 62q-43 0 -90 -15t-87 -44t-69.5 -73t-39.5 -101z" />
<glyph unicode="&#x178;" horiz-adv-x="1290" d="M176 1450h324l274 -578l443 578h307l-662 -829l-88 -621h-258l88 621zM514 1696q10 59 59.5 103t116.5 44q68 0 109 -42t30 -105q-8 -63 -60 -105.5t-120 -42.5t-105.5 44.5t-29.5 103.5zM936 1696q10 59 59 103t117 44t109 -42t30 -105q-8 -63 -60 -105.5t-120 -42.5 t-105.5 44.5t-29.5 103.5z" />
<glyph unicode="&#x2c6;" horiz-adv-x="532" d="M55 1155l279 295h276l191 -295h-234l-114 184l-168 -184h-230z" />
<glyph unicode="&#x2dc;" horiz-adv-x="532" d="M53 1163q14 49 37 96.5t54.5 83t74.5 58t100 22.5q41 0 81 -12t77 -25.5t69 -25.5t56 -12q41 0 65.5 25.5t41.5 60.5h135q-16 -49 -38 -96.5t-52.5 -83t-73.5 -58t-100 -22.5q-41 0 -82 12t-78 26.5t-69 26.5t-56 12q-41 0 -65.5 -26.5t-41.5 -61.5h-135z" />
<glyph unicode="&#x2000;" horiz-adv-x="961" />
<glyph unicode="&#x2001;" horiz-adv-x="1923" />
<glyph unicode="&#x2002;" horiz-adv-x="961" />
<glyph unicode="&#x2003;" horiz-adv-x="1923" />
<glyph unicode="&#x2004;" horiz-adv-x="641" />
<glyph unicode="&#x2005;" horiz-adv-x="480" />
<glyph unicode="&#x2006;" horiz-adv-x="320" />
<glyph unicode="&#x2007;" horiz-adv-x="320" />
<glyph unicode="&#x2008;" horiz-adv-x="240" />
<glyph unicode="&#x2009;" horiz-adv-x="384" />
<glyph unicode="&#x200a;" horiz-adv-x="106" />
<glyph unicode="&#x2010;" horiz-adv-x="645" d="M125 399l31 209h506l-31 -209h-506z" />
<glyph unicode="&#x2011;" horiz-adv-x="645" d="M125 399l31 209h506l-31 -209h-506z" />
<glyph unicode="&#x2012;" horiz-adv-x="645" d="M125 399l31 209h506l-31 -209h-506z" />
<glyph unicode="&#x2013;" horiz-adv-x="1024" d="M57 406l27 196h1024l-27 -196h-1024z" />
<glyph unicode="&#x2014;" horiz-adv-x="2048" d="M57 406l27 196h2048l-27 -196h-2048z" />
<glyph unicode="&#x2018;" horiz-adv-x="606" d="M233 909l252 541h220l-222 -541h-250z" />
<glyph unicode="&#x2019;" horiz-adv-x="606" d="M233 909l222 541h250l-252 -541h-220z" />
<glyph unicode="&#x201a;" horiz-adv-x="606" d="M70 -258l219 541h250l-250 -541h-219z" />
<glyph unicode="&#x201c;" horiz-adv-x="1062" d="M246 909l252 541h219l-221 -541h-250zM678 909l252 541h219l-221 -541h-250z" />
<glyph unicode="&#x201d;" horiz-adv-x="1062" d="M246 909l221 541h250l-252 -541h-219zM678 909l221 541h250l-252 -541h-219z" />
<glyph unicode="&#x201e;" horiz-adv-x="1062" d="M84 -258l219 541h250l-250 -541h-219zM512 -258l219 541h250l-250 -541h-219z" />
<glyph unicode="&#x2022;" horiz-adv-x="1024" d="M252 725q10 76 48 141.5t94.5 114.5t126 77.5t145.5 28.5t137 -28.5t104 -77.5t61.5 -114.5t8.5 -141.5t-48 -141.5t-94.5 -114.5t-126 -78t-145.5 -29t-137 29t-104 78t-61.5 114.5t-8.5 141.5z" />
<glyph unicode="&#x2026;" horiz-adv-x="2048" d="M199 143q10 66 64 113t122 47q66 0 108 -45t33 -111q-10 -66 -64 -112.5t-122 -46.5q-33 0 -60.5 12t-47 32.5t-28.5 49t-5 61.5zM881 143q10 66 64 113t122 47q66 0 108 -45t33 -111q-10 -66 -64 -112.5t-122 -46.5q-33 0 -60.5 12t-47 32.5t-28.5 49t-5 61.5zM1563 143 q10 66 64 113t122 47q66 0 107.5 -45t33.5 -111q-10 -66 -64 -112.5t-122 -46.5q-33 0 -60.5 12t-47 32.5t-28.5 49t-5 61.5z" />
<glyph unicode="&#x202f;" horiz-adv-x="384" />
<glyph unicode="&#x2039;" horiz-adv-x="606" d="M133 508l375 459l139 -105l-285 -354l187 -358l-170 -105z" />
<glyph unicode="&#x203a;" horiz-adv-x="606" d="M100 150l287 354l-188 358l170 105l247 -463l-376 -459z" />
<glyph unicode="&#x205f;" horiz-adv-x="480" />
<glyph unicode="&#x20ac;" horiz-adv-x="1212" d="M94 446l82 185h82q2 20 4 40.5t6 43.5q8 55 19 104h-135l90 191h106q98 225 271.5 345t396.5 120q86 0 166 -19.5t125 -48.5l-107 -211q-82 59 -219 59q-102 0 -198.5 -56t-164.5 -189h508l-86 -191h-487q-6 -29 -12 -57.5t-11 -59.5q-2 -18 -4 -36.5t-4 -34.5h443 l-84 -185h-357q14 -117 72.5 -185t175.5 -68q86 0 148.5 29.5t115.5 82.5l131 -153q-59 -72 -174.5 -124.5t-263.5 -52.5q-123 0 -209 35t-143.5 97.5t-86 148.5t-34.5 190h-162z" />
<glyph unicode="&#x2122;" horiz-adv-x="2048" d="M260 1266l27 184h708l-26 -184h-250l-92 -660h-209l92 660h-250zM1069 606l119 844h291l123 -549l278 549h291l-119 -844h-209l76 549h-4l-283 -549h-143l-131 549h-4l-76 -549h-209z" />
<glyph unicode="&#xe000;" horiz-adv-x="983" d="M0 0v983h983v-983h-983z" />
<glyph unicode="&#xfb01;" horiz-adv-x="1214" d="M133 774l29 209h203l20 139q14 102 41 185.5t75 142.5t123.5 91t190.5 32q84 0 154 -14l-45 -209q-27 6 -50.5 10t-50.5 4q-51 0 -84.5 -16.5t-54 -44t-31 -64.5t-16.5 -78l-27 -178h228l-29 -209h-227l-109 -774h-246l109 774h-203zM860 0l137 983h246l-137 -983h-246z M1012 1317q10 59 59 103t117 44t108.5 -42t30.5 -105q-8 -63 -60.5 -105.5t-119.5 -42.5q-68 0 -105.5 44.5t-29.5 103.5z" />
<glyph unicode="&#xfb02;" horiz-adv-x="1214" d="M133 774l29 209h203l20 139q14 102 41 185.5t75 142.5t123.5 91t190.5 32q84 0 154 -14l-45 -209q-27 6 -50.5 10t-50.5 4q-51 0 -84.5 -16.5t-54 -44t-31 -64.5t-16.5 -78l-27 -178h228l-29 -209h-227l-109 -774h-246l109 774h-203zM860 0l217 1548h246l-217 -1548h-246 z" />
</font>
</defs>
</svg>
