<?xml version="1.0" standalone="no"?>
<!DOCTYPE svg PUBLIC "-//W3C//DTD SVG 1.1//EN" "http://www.w3.org/Graphics/SVG/1.1/DTD/svg11.dtd" >
<svg xmlns="http://www.w3.org/2000/svg">
<metadata></metadata>
<defs>
<font id="Av1Regular" horiz-adv-x="1138" >
<font-face units-per-em="2048" ascent="1638" descent="-410" />
<missing-glyph horiz-adv-x="569" />
<glyph horiz-adv-x="0" />
<glyph horiz-adv-x="2048" />
<glyph unicode=" "  horiz-adv-x="569" />
<glyph unicode="&#x09;" horiz-adv-x="569" />
<glyph unicode="&#xa0;" horiz-adv-x="569" />
<glyph unicode="!" horiz-adv-x="569" d="M150 123q0 55 39.5 95t95.5 40q55 0 95 -40t40 -95t-40 -95t-95 -40t-95 40t-40 95zM182 418v1032h197v-1032h-197z" />
<glyph unicode="&#x22;" horiz-adv-x="1062" d="M299 946v504h160v-504h-160zM604 946v504h160v-504h-160z" />
<glyph unicode="#" d="M51 418v160h217l41 294h-194v160h217l57 418h162l-57 -418h237l57 418h162l-57 -418h194v-160h-217l-41 -294h195v-160h-217l-57 -418h-162l57 418h-237l-58 -418h-162l58 418h-195zM430 578h238l41 294h-238z" />
<glyph unicode="$" d="M53 172l158 141q47 -78 127 -119.5t166 -46.5v504q-84 20 -159 52t-133 81.5t-92 119t-34 167.5q0 88 35 158.5t92 123t133 84t158 38.5v147h110v-147q113 0 220.5 -38t185.5 -120l-148 -143q-47 59 -113.5 92.5t-144.5 36.5v-484l-4 -2q88 -25 169 -54.5t142.5 -75.5 t98.5 -115.5t37 -174.5q0 -94 -36 -169.5t-96.5 -130t-141.5 -85t-169 -37.5v-147h-110v147q-135 0 -251 44t-200 153zM283 1071q0 -49 18 -85t49 -62.5t71 -45t83 -30.5v455q-98 -16 -159.5 -75t-61.5 -157zM614 147q51 6 95.5 24.5t78 49.5t53 73t19.5 95t-21.5 91 t-55 64.5t-79 45t-90.5 33.5v-476z" />
<glyph unicode="%" horiz-adv-x="1744" d="M76 1124q0 76 28.5 141.5t77.5 115t114.5 78t141.5 28.5t141.5 -28.5t114.5 -78t78 -115t29 -141.5t-29 -141t-78 -114.5t-114.5 -78t-141.5 -28.5t-141.5 28.5t-114.5 78t-77.5 114.5t-28.5 141zM236 1124q0 -86 58 -144t144 -58t144.5 58t58.5 144t-58.5 144.5 t-144.5 58.5t-144 -58.5t-58 -144.5zM358 0l912 1516l123 -64l-912 -1515zM944 326q0 76 28.5 141t78 114.5t115 78t141.5 28.5t141 -28.5t114.5 -78t78 -115t28.5 -140.5q0 -76 -28.5 -141.5t-78 -115t-115 -78t-140.5 -28.5q-76 0 -141.5 28.5t-115 78t-78 115 t-28.5 141.5zM1104 326q0 -86 58.5 -144.5t144.5 -58.5t144 58.5t58 144.5t-58 144t-144 58t-144.5 -58t-58.5 -144z" />
<glyph unicode="&#x26;" horiz-adv-x="1478" d="M96 383q0 76 27 138.5t72 113.5t105 92t126 72q-70 74 -120 151.5t-50 184.5q0 82 31.5 145t85 106.5t123 66t147.5 22.5q76 0 144.5 -20.5t119.5 -61.5t81 -102.5t30 -143.5q0 -68 -26.5 -124t-69.5 -102.5t-96.5 -82t-108.5 -64.5l287 -299l182 297h223l-281 -434 l330 -338h-264l-178 193q-92 -111 -195.5 -170.5t-249.5 -59.5q-123 0 -213 36t-148 95.5t-86 134t-28 154.5zM305 389q0 -53 22.5 -99t61.5 -81t87 -54.5t102 -19.5q53 0 99 16.5t86 42t73.5 58.5t62.5 67l-350 365q-43 -25 -87 -53.5t-79 -63.5t-56.5 -79t-21.5 -99z M453 1133q0 -37 13 -70t34.5 -63.5t46 -57.5t49.5 -51q37 20 77 45t72.5 55.5t54 68.5t21.5 87q0 72 -49 114t-127 42t-135 -44.5t-57 -125.5z" />
<glyph unicode="'" horiz-adv-x="569" d="M205 946v504h160v-504h-160z" />
<glyph unicode="(" horiz-adv-x="569" d="M98 590q0 236 76 471t223 438l123 -78q-66 -104 -115 -200.5t-81.5 -195.5t-49 -205.5t-16.5 -229.5q0 -225 65.5 -436t196.5 -392l-123 -81q-141 193 -220 424t-79 485z" />
<glyph unicode=")" horiz-adv-x="569" d="M49 -242q66 104 115 200.5t82 196t49 206t16 229.5q0 225 -65.5 436t-196.5 391l123 82q141 -193 220 -424t79 -485q0 -236 -76 -471.5t-223 -437.5z" />
<glyph unicode="*" horiz-adv-x="950" d="M72 1114l43 133l288 -98v301h148v-301l285 96l43 -137l-285 -92l180 -244l-112 -84l-187 250l-182 -246l-113 84l182 240z" />
<glyph unicode="+" horiz-adv-x="1363" d="M135 541v159h467v467h160v-467h467v-159h-467v-467h-160v467h-467z" />
<glyph unicode="," horiz-adv-x="569" d="M98 -270l142 503h198l-172 -503h-168z" />
<glyph unicode="-" horiz-adv-x="647" d="M72 410v172h503v-172h-503z" />
<glyph unicode="." horiz-adv-x="569" d="M150 123q0 55 39.5 95t95.5 40q55 0 95 -40t40 -95t-40 -95t-95 -40t-95 40t-40 95z" />
<glyph unicode="/" horiz-adv-x="796" d="M0 -37l655 1577l142 -53l-654 -1577z" />
<glyph unicode="0" d="M70 725q0 80 8 166t29.5 169t57.5 158.5t92 132t133 90.5t179 34t179 -34t133.5 -90.5t92.5 -132t57.5 -158.5t29.5 -169t8 -166q0 -115 -20.5 -246t-75.5 -243.5t-152.5 -186.5t-251.5 -74t-251 74t-152 186.5t-75.5 243.5t-20.5 246zM266 725q0 -72 9.5 -170t40 -189.5 t91 -155t162.5 -63.5t163 63.5t91.5 155t39.5 189.5t9 170q0 49 -3 111.5t-14 127t-31.5 125t-54.5 108.5t-83 77t-117 29t-117 -29t-82.5 -77t-54 -108.5t-32 -125t-14.5 -127t-3 -111.5z" />
<glyph unicode="1" d="M172 1116l403 334h175v-1450h-197v1225l-266 -246z" />
<glyph unicode="2" d="M94 0v209l582 577q31 29 59.5 63t51 70.5t36 77.5t13.5 86q0 53 -19.5 96.5t-53.5 73t-80 46t-97 16.5q-106 0 -176 -59.5t-88 -163.5l-213 18q14 96 56 167t104.5 118t143.5 69.5t175 22.5t177 -25.5t145.5 -76t98 -125t35.5 -175.5q0 -72 -21.5 -134t-56 -117.5 t-79.5 -104.5t-94 -96l-478 -461h729v-172h-950z" />
<glyph unicode="3" d="M94 291l207 63q35 -104 93.5 -155.5t172.5 -51.5q57 0 107.5 19.5t89.5 53.5t61.5 82t22.5 108q0 90 -38 144t-97.5 82t-131 36t-141.5 8v172q113 0 184.5 15.5t112.5 44t57.5 71.5t16.5 96q0 117 -69.5 176.5t-174.5 59.5q-80 0 -144.5 -46t-96.5 -122l-201 67 q57 139 175 206t263 67q88 0 169 -23.5t142.5 -73t97.5 -124t36 -174.5q0 -115 -69 -205t-179 -123v-4q68 -12 121 -45t90 -82t55 -109.5t18 -128.5q0 -104 -39.5 -183t-106.5 -131t-154 -79t-183 -27q-166 0 -292 76t-175 240z" />
<glyph unicode="4" d="M70 319v201l577 930h238v-958h205v-173h-205v-319h-197v319h-618zM242 492h446v725h-4z" />
<glyph unicode="5" d="M70 268l198 68q39 -100 104.5 -144.5t164.5 -44.5q57 0 109 20.5t90 58.5t60.5 93.5t22.5 124.5q0 160 -97 239t-253 79q-55 0 -140 -19.5t-159 -56.5l16 764h779v-184h-588l-6 -363q14 6 40.5 12.5t54.5 10.5t54.5 6t44.5 2q102 0 185.5 -35t142.5 -98.5t91 -151.5 t32 -194q0 -109 -40 -197t-109.5 -151.5t-162 -97.5t-198.5 -34q-147 0 -266 76t-170 217z" />
<glyph unicode="6" d="M72 442q0 68 10 123.5t29.5 105.5t46 98t59.5 101l367 580h231l-364 -561h8q68 33 159 33q78 0 158 -27t144.5 -83t105.5 -143t41 -206q0 -121 -40 -212t-107.5 -152.5t-157.5 -92.5t-193 -31q-102 0 -192 33t-157.5 94.5t-107.5 147.5t-40 192zM268 449 q0 -66 21.5 -121.5t61.5 -95t95.5 -62.5t122.5 -23q68 0 123.5 23t95 62.5t61 95t21.5 121.5t-21.5 121t-61 95t-95 62.5t-123.5 22.5t-123 -22.5t-95 -62.5t-61.5 -95t-21.5 -121z" />
<glyph unicode="7" d="M86 1278v172h911v-168l-577 -1282h-221l587 1278h-700z" />
<glyph unicode="8" d="M96 416q0 68 21.5 125t58.5 103t87 78t110 48v6q-41 10 -82 37t-73 68t-52.5 99t-20.5 134q0 82 34 148.5t92.5 113.5t135 73t162.5 26t163 -26t135.5 -73t92 -113.5t33.5 -148.5q0 -76 -20.5 -134t-52 -99t-72.5 -68t-82 -37v-6q59 -16 109.5 -48t87 -78t58 -103.5 t21.5 -124.5q0 -102 -36.5 -184t-100 -139.5t-151 -87.5t-185.5 -30t-185 30t-150.5 87.5t-100.5 139t-37 184.5zM293 416q0 -63 22.5 -113.5t60.5 -84.5t88 -52.5t105 -18.5q123 0 200 75t77 194q0 66 -21.5 116t-59.5 83.5t-88 51t-108 17.5q-121 -2 -198.5 -77 t-77.5 -191zM342 1085q0 -43 15.5 -83.5t44 -72.5t70.5 -52.5t97 -20.5q57 0 99.5 19.5t71 51t43 72.5t14.5 86q0 100 -62.5 165t-165.5 65q-94 0 -160.5 -64t-66.5 -166z" />
<glyph unicode="9" d="M72 987q0 119 40 210t107.5 152.5t157.5 93.5t192 32t192.5 -33t158 -94.5t107.5 -147.5t40 -192q0 -68 -10 -123.5t-29.5 -105.5t-46.5 -99t-59 -100l-367 -580h-231l364 561h-8q-68 -33 -160 -33q-78 0 -157.5 27t-144 83t-105.5 143t-41 206zM268 1001 q0 -66 21.5 -121t61.5 -95t95.5 -62.5t122.5 -22.5q68 0 123.5 22.5t95 62.5t61 95t21.5 121t-21.5 121.5t-61 95t-95 62.5t-123.5 23t-123 -23t-95 -62.5t-61.5 -95t-21.5 -121.5z" />
<glyph unicode=":" horiz-adv-x="569" d="M150 123q0 55 39.5 95t95.5 40q55 0 95 -40t40 -95t-40 -95t-95 -40t-95 40t-40 95zM150 848q0 55 39.5 95t95.5 40q55 0 95 -40t40 -95t-40 -95t-95 -40t-95 40t-40 95z" />
<glyph unicode=";" horiz-adv-x="569" d="M98 -270l142 503h198l-172 -503h-168zM150 846q0 55 39.5 95t95.5 40q55 0 95 -40t40 -95t-40 -95t-95 -40t-95 40t-40 95z" />
<glyph unicode="&#x3c;" horiz-adv-x="1363" d="M135 537v168l1094 450v-162l-926 -372l926 -373v-160z" />
<glyph unicode="=" horiz-adv-x="1363" d="M135 379v160h1094v-160h-1094zM135 700v160h1094v-160h-1094z" />
<glyph unicode="&#x3e;" horiz-adv-x="1363" d="M135 86v162l926 373l-926 372v160l1094 -448v-168z" />
<glyph unicode="?" horiz-adv-x="1024" d="M98 1106q27 178 149 279.5t302 101.5q86 0 160.5 -25.5t130 -74t87 -119t31.5 -160.5q0 -78 -22.5 -136.5t-63.5 -109.5l-122 -127l-21 -18q-33 -31 -52.5 -52.5t-30.5 -45t-15 -52t-4 -71.5v-90h-197v124q0 55 8 92t24.5 67t44.5 57.5t68 66.5q33 31 66 62.5t59.5 65.5 t44 72t17.5 85t-17.5 87t-46 68.5t-68.5 45t-85 16.5q-100 0 -163 -63.5t-75 -166.5zM391 123q0 55 40 95t95 40t95.5 -40t40.5 -95t-40 -95t-96 -40q-55 0 -95 40t-40 95z" />
<glyph unicode="@" horiz-adv-x="1638" d="M90 729q0 158 60.5 296t164 240.5t241.5 162t294 59.5q143 0 270 -47t222.5 -130t150.5 -197t55 -249q0 -131 -48 -237.5t-120.5 -182t-156.5 -116.5t-156 -41q-53 0 -90 33.5t-39 97.5h-8q-47 -49 -112.5 -90t-141.5 -41q-66 0 -118 25.5t-88 68.5t-55.5 101.5 t-19.5 125.5q0 100 33 198.5t92.5 175.5t144.5 124t189 47q72 0 131 -36t88 -120h4l33 117h150l-173 -567q-10 -35 -10 -51q0 -49 60 -50q43 0 88 32t80.5 87.5t59.5 128t24 154.5q0 121 -43 214t-117 157.5t-171 98.5t-206 34q-131 0 -241.5 -49.5t-190.5 -134.5 t-125 -199.5t-45 -247.5q0 -135 47 -250t130 -198t194.5 -129t240.5 -46q147 0 275.5 53.5t201.5 153.5h162q-43 -78 -111.5 -141.5t-154.5 -107.5t-182.5 -68.5t-194.5 -24.5q-162 0 -302 59.5t-243.5 163t-163 243.5t-59.5 300zM567 610q0 -76 34 -120t112 -44 q61 0 113.5 36t89 89.5t57 118t20.5 123.5q0 72 -31.5 126t-97.5 54q-72 0 -127 -31.5t-93 -86t-57.5 -123t-19.5 -142.5z" />
<glyph unicode="A" horiz-adv-x="1441" d="M2 0l639 1450h178l621 -1450h-230l-145 358h-690l-144 -358h-229zM444 530h549l-270 666h-4z" />
<glyph unicode="B" horiz-adv-x="1290" d="M186 0v1450h504q94 0 175 -22.5t139.5 -66.5t92 -112.5t33.5 -161.5q0 -125 -69.5 -203.5t-179.5 -115.5v-4q66 -4 123 -34t99 -78t66.5 -111.5t24.5 -137.5q0 -98 -40 -172.5t-109.5 -126t-161.5 -78t-199 -26.5h-498zM383 172h289q45 0 99 9t101.5 37t80 75t32.5 125 q0 129 -84 193.5t-227 64.5h-291v-504zM383 848h268q55 0 104.5 11t86.5 38t58.5 68t21.5 100q0 86 -55.5 149.5t-174.5 63.5h-309v-430z" />
<glyph unicode="C" horiz-adv-x="1441" d="M96 713q0 168 55.5 310t155 245.5t238.5 161t307 57.5q143 0 281.5 -55.5t226.5 -169.5l-164 -125q-61 80 -155.5 123t-194.5 43q-123 0 -222.5 -46.5t-170 -126t-109.5 -187t-39 -230.5q0 -115 37 -217.5t106.5 -180t170 -123t227.5 -45.5q125 0 219 51.5t160 143.5 l166 -125q-16 -23 -57.5 -64.5t-109 -83.5t-162.5 -74t-220 -32q-172 0 -310.5 65.5t-235.5 172t-148.5 240.5t-51.5 272z" />
<glyph unicode="D" horiz-adv-x="1517" d="M154 0v1450h505q154 0 269.5 -35t200.5 -93t141.5 -134t89.5 -156t47 -159.5t14 -147.5q0 -139 -51 -269t-151.5 -231.5t-249 -163t-342.5 -61.5h-473zM350 184h248q125 0 236.5 34t195.5 101.5t133 169t49 236.5q0 70 -22.5 163t-85 177t-173 142.5t-286.5 58.5h-295 v-1082z" />
<glyph unicode="E" horiz-adv-x="1251" d="M186 0v1450h936v-184h-739v-432h688v-185h-688v-465h776v-184h-973z" />
<glyph unicode="F" horiz-adv-x="1175" d="M186 0v1450h912v-184h-715v-455h666v-184h-666v-627h-197z" />
<glyph unicode="G" horiz-adv-x="1593" d="M96 725q0 162 56.5 301t156 241.5t238.5 161t305 58.5q201 0 328 -50.5t213 -138.5l-140 -149q-90 86 -190 120t-211 34q-125 0 -225.5 -46.5t-172 -124t-110.5 -183t-39 -224.5q0 -123 43 -228.5t119 -183t178.5 -122t222.5 -44.5q104 0 197.5 19.5t159.5 56.5v404h-322 v184h518v-715q-53 -33 -120.5 -57.5t-140.5 -41.5t-147.5 -25.5t-140.5 -8.5q-184 0 -328.5 61.5t-243.5 166t-151.5 242.5t-52.5 292z" />
<glyph unicode="H" horiz-adv-x="1517" d="M186 0v1450h197v-602h752v602h196v-1450h-196v664h-752v-664h-197z" />
<glyph unicode="I" horiz-adv-x="569" d="M186 0v1450h197v-1450h-197z" />
<glyph unicode="J" horiz-adv-x="987" d="M18 281l193 43q16 -82 67.5 -129.5t133.5 -47.5q74 0 117.5 29t68.5 75t33 105.5t8 120.5v973h197v-1036q0 -137 -43 -224.5t-107.5 -137.5t-138.5 -69.5t-135 -19.5q-154 0 -259.5 79t-134.5 239z" />
<glyph unicode="K" horiz-adv-x="1327" d="M186 0v1450h197v-627h16l641 627h275l-701 -670l748 -780h-287l-676 725h-16v-725h-197z" />
<glyph unicode="L" horiz-adv-x="1062" d="M186 0v1450h197v-1266h666v-184h-863z" />
<glyph unicode="M" horiz-adv-x="1855" d="M172 0v1450h293l461 -1098h8l457 1098h292v-1450h-196v1192h-4l-490 -1192h-131l-489 1192h-4v-1192h-197z" />
<glyph unicode="N" horiz-adv-x="1630" d="M186 0v1450h258l799 -1192h4v1192h197v-1450h-250l-807 1192h-4v-1192h-197z" />
<glyph unicode="O" horiz-adv-x="1703" d="M96 725q0 162 56.5 301t156 241.5t238.5 161t305 58.5t305 -58.5t238.5 -161t156 -241.5t56.5 -301t-56.5 -301t-156 -241.5t-238.5 -161t-305 -58.5t-305 58.5t-238.5 161t-156 241.5t-56.5 301zM305 725q0 -119 39 -224.5t110.5 -183t172 -124t225.5 -46.5t225.5 46.5 t172 124t110.5 183t39 224.5t-39 224.5t-110.5 183t-172 124t-225.5 46.5t-225.5 -46.5t-172 -124t-110.5 -183t-39 -224.5z" />
<glyph unicode="P" horiz-adv-x="1214" d="M186 0v1450h510q139 0 229.5 -38t142.5 -96.5t72.5 -131t20.5 -140.5t-20.5 -140.5t-72.5 -130.5t-142 -96t-230 -38h-313v-639h-197zM383 811h258q57 0 113.5 9t100.5 34t70.5 71t26.5 119q0 74 -26.5 120t-70.5 71t-100.5 34t-113.5 9h-258v-467z" />
<glyph unicode="Q" horiz-adv-x="1703" d="M96 741q0 160 57.5 296.5t159 236.5t237.5 156.5t296 56.5q154 0 288 -55.5t234 -152.5t158.5 -229t58.5 -288q0 -92 -21.5 -181t-63.5 -167t-104.5 -139.5t-142.5 -98.5v-4h430v-172h-835q-154 0 -291 55.5t-239.5 153.5t-162 234.5t-59.5 297.5zM305 758 q0 -119 39 -223.5t109.5 -182.5t169 -123t217.5 -45t218 44t169.5 121t109.5 181.5t39 223.5q0 115 -40 215t-111.5 174t-170 117t-214.5 43q-115 0 -212.5 -43t-169 -117t-112.5 -173.5t-41 -211.5z" />
<glyph unicode="R" horiz-adv-x="1251" d="M186 0v1450h510q139 0 229.5 -38t142.5 -96.5t72.5 -131t20.5 -140.5q0 -70 -24.5 -134t-70.5 -116.5t-112.5 -88t-148.5 -43.5l412 -662h-246l-369 639h-219v-639h-197zM383 811h258q57 0 113.5 9t100.5 34t70.5 71t26.5 119q0 74 -26.5 120t-70.5 71t-100.5 34 t-113.5 9h-258v-467z" />
<glyph unicode="S" d="M68 164l161 139q53 -80 136.5 -118t171.5 -38q49 0 100 15.5t93 46.5t68.5 76t26.5 104q0 84 -53 128t-132 74t-172 57.5t-172 76.5t-132 132t-53 224q0 63 27.5 135t87 131.5t152.5 99.5t224 40q119 0 227.5 -33t190.5 -133l-160 -145q-37 57 -104.5 92t-153.5 35 q-82 0 -136 -21.5t-87 -55.5t-46.5 -73t-13.5 -72q0 -92 53.5 -141t132.5 -80t172 -55.5t172 -68.5t132 -118.5t53 -205.5q0 -104 -40 -188.5t-107.5 -141.5t-159.5 -88t-197 -31q-139 0 -264 49t-198 152z" />
<glyph unicode="T" horiz-adv-x="1175" d="M23 1266v184h1130v-184h-467v-1266h-197v1266h-466z" />
<glyph unicode="U" horiz-adv-x="1441" d="M160 530v920h196v-889q0 -68 18.5 -140.5t61.5 -134t112.5 -100.5t172.5 -39q102 0 172 39t113 100.5t61 134.5t18 140v889h197v-920q0 -127 -43 -230t-119 -179t-178 -117t-221 -41t-221.5 41t-178 117t-118.5 179t-43 230z" />
<glyph unicode="V" horiz-adv-x="1290" d="M-12 1450h227l426 -1180h4l442 1180h216l-572 -1450h-184z" />
<glyph unicode="W" horiz-adv-x="1970" d="M2 1450h205l319 -1159h4l342 1159h226l342 -1159h4l319 1159h205l-422 -1450h-207l-352 1184h-4l-350 -1184h-207z" />
<glyph unicode="X" horiz-adv-x="1327" d="M-4 0l526 762l-487 688h252l377 -557l372 557h246l-483 -686l532 -764h-258l-416 629l-417 -629h-244z" />
<glyph unicode="Y" horiz-adv-x="1253" d="M-20 1450h251l396 -637l407 637h240l-549 -832v-618h-197v618z" />
<glyph unicode="Z" horiz-adv-x="1214" d="M66 0v184l825 1082h-801v184h1047v-184l-822 -1082h834v-184h-1083z" />
<glyph unicode="[" horiz-adv-x="569" d="M147 -319v1818h357v-135h-185v-1548h185v-135h-357z" />
<glyph unicode="\" horiz-adv-x="796" d="M0 1487l141 53l656 -1577l-144 -53z" />
<glyph unicode="]" horiz-adv-x="569" d="M66 -184h184v1548h-184v135h356v-1818h-356v135z" />
<glyph unicode="^" horiz-adv-x="1363" d="M164 565l436 885h164l436 -885h-170l-348 723l-348 -723h-170z" />
<glyph unicode="_" horiz-adv-x="1024" d="M0 -154h1024v-102h-1024v102z" />
<glyph unicode="`" horiz-adv-x="491" d="M-94 1450h262l213 -295h-170z" />
<glyph unicode="a" horiz-adv-x="1062" d="M92 266q0 94 42 157.5t115 103.5t170 57.5t208 17.5h135v41q0 37 -14.5 74t-43 66.5t-71.5 47t-103 17.5q-53 0 -93 -10.5t-72.5 -25.5t-59 -35.5t-51.5 -39.5l-111 115q78 72 180.5 107.5t204.5 35.5q106 0 183 -26.5t126.5 -71.5t73 -103.5t23.5 -121.5v-496 q0 -51 2 -94t6 -82h-164q-6 74 -6 147h-4q-61 -94 -145 -133t-195 -39q-68 0 -129 18.5t-107.5 55.5t-73 91.5t-26.5 125.5zM276 281q0 -84 56.5 -121t152.5 -37q76 0 129.5 25.5t86 66.5t47 91t14.5 100v61h-98q-66 0 -134.5 -7t-125 -27.5t-92.5 -57.5t-36 -94z" />
<glyph unicode="b" horiz-adv-x="1251" d="M139 0v1548h185v-717h4q49 76 141 120t197 44q113 0 204 -38.5t155.5 -107.5t99 -162t34.5 -202t-34.5 -200.5t-99 -161.5t-156 -109t-203.5 -39q-98 0 -191.5 43t-146.5 121h-4v-139h-185zM324 485q0 -74 22.5 -136t63.5 -106t100 -70t133 -26t133.5 26t100.5 70 t63.5 106.5t22.5 135.5q0 74 -22.5 136.5t-63.5 106.5t-100.5 69.5t-133.5 25.5t-133 -25.5t-100 -69.5t-63.5 -106.5t-22.5 -136.5z" />
<glyph unicode="c" horiz-adv-x="987" d="M92 481q0 113 37 207t103.5 162t159.5 105.5t208 37.5q106 0 203.5 -37.5t169.5 -115.5l-139 -127q-51 53 -107.5 80.5t-134.5 27.5q-76 0 -132.5 -27.5t-94 -75.5t-57 -110.5t-19.5 -130.5t22.5 -128t63.5 -105t98 -71t129 -26q78 0 133.5 28t102.5 81l131 -131 q-72 -80 -167 -115t-202 -35q-113 0 -206 37t-160.5 103.5t-104.5 160t-37 205.5z" />
<glyph unicode="d" horiz-adv-x="1251" d="M92 485q0 109 35 202t99.5 162t155.5 107.5t204 38.5q104 0 196 -44t142 -120h4v717h184v-1548h-184v139h-4q-53 -78 -146.5 -121t-191.5 -43q-113 0 -204 39t-155.5 109t-99.5 162t-35 200zM289 485q0 -74 22.5 -136t63.5 -106t100 -70t133 -26t133.5 26t100.5 70 t63.5 106.5t22.5 135.5q0 74 -22.5 136.5t-63.5 106.5t-100.5 69.5t-133.5 25.5t-133 -25.5t-100 -69.5t-63.5 -106.5t-22.5 -136.5z" />
<glyph unicode="e" d="M82 485q0 109 38 202t104.5 162t158.5 107.5t201 38.5q129 0 218 -45t146.5 -117.5t83 -163.5t25.5 -186v-65h-778q0 -63 27.5 -115.5t72.5 -89.5t104.5 -57.5t122.5 -20.5q86 0 149.5 40t116.5 106l140 -107q-154 -199 -430 -199q-115 0 -208 39t-157.5 107.5t-99.5 162 t-35 201.5zM279 565h581q-2 61 -19.5 112.5t-52 89.5t-87 59.5t-121.5 21.5q-68 0 -124.5 -25.5t-95 -66.5t-60 -91.5t-21.5 -99.5z" />
<glyph unicode="f" horiz-adv-x="681" d="M2 811v160h209v217q0 195 74.5 290t257.5 95q31 0 64.5 -2t72.5 -12l-21 -164q-27 10 -51 14t-53 4q-51 0 -82 -15.5t-48 -44t-22.5 -68.5t-5.5 -91v-223h219v-160h-221v-811h-184v811h-209z" />
<glyph unicode="g" horiz-adv-x="1251" d="M92 485q0 106 35 199.5t99.5 163.5t155.5 108.5t204 38.5q98 0 191 -43t147 -121h4v140h184v-963q0 -111 -38 -202t-107.5 -157.5t-168 -103.5t-216.5 -37q-139 0 -255 39t-221 136l125 155q72 -78 156 -117.5t191 -39.5q102 0 169.5 29.5t107.5 76.5t56.5 107.5 t16.5 121.5v144h-6q-53 -88 -144.5 -130t-191.5 -42q-106 0 -197.5 37.5t-157 104.5t-102.5 158t-37 197zM289 485q0 -147 86 -236t233 -89t233.5 89t86.5 236q0 74 -22.5 136.5t-63.5 106.5t-100.5 69.5t-133.5 25.5t-133 -25.5t-100 -69.5t-63.5 -106.5t-22.5 -136.5z" />
<glyph unicode="h" d="M139 0v1548h185v-727h4q35 78 121 126t198 48q70 0 134.5 -21.5t112.5 -66.5t76.5 -115.5t28.5 -166.5v-625h-184v573q0 68 -18.5 116t-49 78t-70.5 43t-83 13q-57 0 -106.5 -18.5t-86 -58t-57 -101t-20.5 -145.5v-500h-185z" />
<glyph unicode="i" horiz-adv-x="491" d="M111 1319q0 55 39.5 95t95.5 40q55 0 95 -40t40 -95t-40 -95t-95 -40t-95 40t-40 95zM154 0v971h184v-971h-184z" />
<glyph unicode="j" horiz-adv-x="491" d="M-78 -473l21 170q16 -6 36.5 -11t38.5 -5q76 0 106 48t30 140v1102h184v-1110q0 -37 -5 -97.5t-33 -117t-88 -97.5t-171 -41q-31 0 -60.5 4.5t-58.5 14.5zM111 1319q0 55 39.5 95t95.5 40q55 0 95 -40t40 -95t-40 -95t-95 -40t-95 40t-40 95z" />
<glyph unicode="k" horiz-adv-x="1062" d="M139 0v1548h185v-999l417 420h256l-452 -441l491 -528h-262l-450 504v-504h-185z" />
<glyph unicode="l" horiz-adv-x="491" d="M154 0v1548h184v-1548h-184z" />
<glyph unicode="m" horiz-adv-x="1744" d="M139 0v971h172v-152h4q6 20 32 51t66 58.5t94 47t120 19.5q109 0 182.5 -45t120.5 -135q47 90 133 135t174 45q113 0 184.5 -36.5t112.5 -97t56.5 -137.5t15.5 -159v-565h-185v541q0 55 -7 106t-29.5 90t-63.5 62.5t-109 23.5q-133 0 -190 -82t-57 -211v-530h-185v508 q0 70 -7 127t-28.5 99t-61.5 65.5t-108 23.5q-49 0 -95 -19.5t-80.5 -58t-55 -99t-20.5 -142.5v-504h-185z" />
<glyph unicode="n" d="M139 0v971h185v-150h4q35 78 121 126t198 48q70 0 134.5 -21.5t112.5 -66.5t76.5 -115.5t28.5 -166.5v-625h-184v573q0 68 -18.5 116t-49 78t-70.5 43t-83 13q-57 0 -106.5 -18.5t-86 -58t-57 -101t-20.5 -145.5v-500h-185z" />
<glyph unicode="o" horiz-adv-x="1216" d="M92 485q0 106 40 198.5t109.5 162t164 109.5t202.5 40q109 0 203 -40t163.5 -109.5t109.5 -161.5t40 -199q0 -106 -40 -199t-109.5 -162t-163.5 -109t-203 -40t-203 40t-163.5 109t-109.5 162t-40 199zM289 485q0 -74 22.5 -136t63.5 -106t100.5 -70t132.5 -26 q74 0 133.5 26t100.5 70t63.5 106.5t22.5 135.5q0 74 -22.5 136.5t-63.5 106.5t-100.5 69.5t-133.5 25.5t-133 -25.5t-100 -69.5t-63.5 -106.5t-22.5 -136.5z" />
<glyph unicode="p" horiz-adv-x="1251" d="M139 -578v1549h185v-140h4q53 78 146 121t192 43q113 0 204 -38.5t155.5 -108.5t99 -163t34.5 -200q0 -109 -34.5 -202t-99 -161.5t-156 -107.5t-203.5 -39q-104 0 -196.5 44t-141.5 120h-4v-717h-185zM324 485q0 -74 22.5 -136t63.5 -106t100 -70t133 -26t133.5 26 t100.5 70t63.5 106.5t22.5 135.5q0 74 -22.5 136.5t-63.5 106.5t-100.5 69.5t-133.5 25.5t-133 -25.5t-100 -69.5t-63.5 -106.5t-22.5 -136.5z" />
<glyph unicode="q" horiz-adv-x="1251" d="M92 485q0 106 35 199.5t99.5 163.5t155.5 108.5t204 38.5q98 0 191 -43t147 -121h4v140h184v-1438h-184v606h-4q-49 -76 -141.5 -120t-196.5 -44q-113 0 -204 39t-155.5 107.5t-99.5 162t-35 201.5zM289 485q0 -74 22.5 -136t63.5 -106t100.5 -70t132.5 -26 q74 0 133.5 26t100.5 70t63.5 106.5t22.5 135.5q0 74 -22.5 136.5t-63.5 106.5t-100.5 69.5t-133.5 25.5t-133 -25.5t-100 -69.5t-63.5 -106.5t-22.5 -136.5z" />
<glyph unicode="r" horiz-adv-x="757" d="M139 0v971h185v-150h4q18 39 49 71t68.5 54.5t82.5 35.5t90 13t82 -12l-8 -199q-23 6 -45 10.5t-45 4.5q-135 0 -206.5 -76t-71.5 -236v-487h-185z" />
<glyph unicode="s" horiz-adv-x="909" d="M57 147l140 115q45 -45 100 -80t135 -35q35 0 71 7.5t63.5 23t45 39t17.5 53.5q0 41 -25.5 68t-61.5 42t-76 24.5t-71 15.5q-59 14 -112.5 32.5t-94.5 49t-65.5 78t-24.5 116.5q0 76 32 132.5t84 93t118.5 55t134.5 18.5q98 0 188 -36.5t144 -122.5l-144 -109 q-33 41 -81 68.5t-117 27.5q-66 0 -114 -27.5t-48 -80.5q0 -43 27.5 -70t65.5 -43t81 -24.5t74 -14.5q59 -14 111.5 -34.5t90 -53.5t59 -80t21.5 -114q0 -82 -34.5 -140.5t-90 -95.5t-126 -53.5t-142.5 -16.5q-121 0 -212 37t-163 135z" />
<glyph unicode="t" horiz-adv-x="757" d="M-2 811v160h213v272h184v-272h264v-160h-264v-440q0 -41 2 -81t15.5 -72t41 -51.5t81.5 -19.5q33 0 67.5 6.5t63.5 22.5v-168q-33 -18 -85.5 -25.5t-80.5 -7.5q-106 0 -165 30t-86.5 77t-32.5 105.5t-5 117.5v506h-213z" />
<glyph unicode="u" d="M139 346v625h185v-574q0 -68 18 -116t49 -77.5t71 -43t83 -13.5q57 0 106 18.5t86 58.5t57.5 101.5t20.5 145.5v500h184v-971h-184v150h-4q-35 -78 -121 -126.5t-198 -48.5q-72 0 -135.5 21.5t-111.5 67t-77 116t-29 166.5z" />
<glyph unicode="v" horiz-adv-x="1024" d="M23 971h213l290 -744l279 744h196l-380 -971h-203z" />
<glyph unicode="w" horiz-adv-x="1554" d="M23 971h206l220 -725h4l231 725h195l245 -725h4l209 725h195l-313 -971h-187l-256 725h-4l-231 -725h-199z" />
<glyph unicode="x" horiz-adv-x="1062" d="M12 0l394 518l-345 453h238l236 -344l231 344h223l-332 -453l394 -518h-238l-287 408l-286 -408h-228z" />
<glyph unicode="y" horiz-adv-x="1024" d="M23 971h213l288 -758h4l275 758h198l-460 -1180q-25 -63 -51.5 -115.5t-63.5 -89.5t-89 -57.5t-128 -20.5q-41 0 -83 5.5t-81 21.5l23 168q53 -22 105 -22h5q43 0 73 11t51.5 32.5t35.5 50t29 65.5l59 154z" />
<glyph unicode="z" horiz-adv-x="948" d="M72 0v166l551 645h-533v160h758v-164l-555 -647h584v-160h-805z" />
<glyph unicode="{" horiz-adv-x="681" d="M82 508v160q70 0 119 63.5t53 175.5v324q0 66 19.5 116t50 83.5t68.5 51t77 17.5h154v-147h-93q-31 0 -50 -15.5t-31.5 -41t-17.5 -57.5t-5 -64v-310q2 -72 -17.5 -121t-48 -81.5t-58.5 -49t-48 -20.5v-6q18 -2 48 -16.5t58.5 -45t48 -83t17.5 -130.5v-307q0 -31 5 -62.5 t17.5 -57t32 -41t49.5 -15.5h93v-147h-154q-39 0 -77 18t-68.5 56t-50 97.5t-19.5 141.5v274q-4 113 -53 176.5t-119 63.5z" />
<glyph unicode="|" horiz-adv-x="454" d="M147 -37v1585h160v-1585h-160z" />
<glyph unicode="}" horiz-adv-x="681" d="M59 -172h93q31 0 50 15.5t31.5 41t17.5 57t5 64.5v309q-2 72 17.5 121t48 82t58.5 49.5t48 20.5v6q-18 2 -48 16.5t-58.5 45t-48 83t-17.5 129.5v308q0 31 -5 62.5t-17.5 57t-32 41t-49.5 15.5h-93v147h154q39 0 77 -18.5t68.5 -56.5t50 -97t19.5 -141v-275 q0 -113 51 -176t121 -63v-160q-70 0 -121 -63.5t-51 -176.5v-323q0 -66 -19.5 -116t-50 -84t-68.5 -51t-77 -17h-154v147z" />
<glyph unicode="~" horiz-adv-x="1363" d="M197 594q47 80 110.5 130t161.5 50q61 0 119.5 -22.5t111.5 -51.5t104.5 -52t98.5 -23q49 0 94 31.5t88 117.5l82 -127q-61 -104 -127.5 -142t-134.5 -38q-59 0 -118.5 22.5t-118.5 51.5t-113.5 51t-103.5 22q-33 0 -59.5 -13t-47 -34.5t-37 -47t-28.5 -52.5z" />
<glyph unicode="&#xa1;" horiz-adv-x="569" d="M150 872q0 55 39.5 95.5t95.5 40.5q55 0 95 -40.5t40 -95.5t-40 -95t-95 -40t-95 40t-40 95zM190 -455v1033h197v-1033h-197z" />
<glyph unicode="&#xa2;" d="M147 485q0 104 31 191.5t88.5 153t139 108.5t184.5 57v135h110v-135q98 -4 189.5 -44t152.5 -111l-133 -121q-39 47 -94 81t-115 36v-701q129 4 218 107l120 -119q-59 -68 -146 -103.5t-192 -44.5v-135h-110v135q-102 10 -184 53.5t-139.5 111t-88.5 156.5t-31 189z M332 489q0 -63 17.5 -121.5t50 -106.5t80.5 -81t110 -45v701q-63 -10 -111.5 -42t-81 -79t-49 -105.5t-16.5 -120.5z" />
<glyph unicode="&#xa3;" d="M147 0v172h209v500h-196v147h196v205q0 88 29 170t85 144.5t140 99.5t197 37q98 0 186 -30t160 -97l-125 -144q-47 45 -98 72t-103 27q-53 0 -103 -17.5t-88 -56.5t-60.5 -101.5t-22.5 -152.5v-156h332v-147h-332v-500h504v-172h-910z" />
<glyph unicode="&#xa4;" d="M43 317l100 101q-49 68 -74.5 147.5t-25.5 161.5q0 84 25.5 163t74.5 146l-100 101l117 114l100 -98q72 51 150.5 75.5t158.5 24.5t159 -24.5t151 -75.5l100 98l117 -114l-101 -101q51 -70 76 -148.5t25 -160.5t-24.5 -161t-76.5 -148l101 -101l-117 -116l-100 100 q-68 -51 -147 -75.5t-163 -24.5q-168 0 -309 100l-100 -100zM203 727q0 -76 28.5 -142.5t78.5 -116.5t117 -79t142 -29q76 0 142.5 29t117 79t79 116.5t28.5 142.5t-28.5 142.5t-79 116.5t-117 79t-142.5 29t-142.5 -29t-116.5 -79t-78.5 -116.5t-28.5 -142.5z" />
<glyph unicode="&#xa5;" d="M-10 1450h205l366 -647l379 647h209l-381 -633h238v-135h-316l-35 -57v-109h351v-135h-351v-381h-172v381h-350v135h350v109l-34 57h-316v135h234z" />
<glyph unicode="&#xa6;" horiz-adv-x="454" d="M147 -37v623h160v-623h-160zM147 926v622h160v-622h-160z" />
<glyph unicode="&#xa7;" d="M127 -47l178 84q29 -86 97.5 -123t156.5 -37q39 0 76 10.5t66.5 32t47 55t17.5 80.5q0 53 -45 92t-111.5 73t-145.5 69t-145.5 77t-111.5 98t-45 136q0 123 56 194.5t144 114.5q-74 41 -118.5 100.5t-44.5 141.5t36.5 145.5t95 105.5t133.5 63.5t150 21.5 q55 0 111.5 -11.5t107 -36t91.5 -63.5t65 -94l-172 -94q-27 66 -81 95.5t-126 31.5q-80 0 -141 -39t-61 -121q0 -61 45 -102t111.5 -75t145 -66.5t145.5 -78t112 -107.5t45 -155q0 -90 -46 -158.5t-124 -109.5q63 -43 98 -105.5t35 -142.5q0 -88 -37 -153.5t-97.5 -109.5 t-138 -65.5t-157.5 -21.5q-135 0 -249 58.5t-169 189.5zM346 657q0 -47 19.5 -79.5t48 -55t64.5 -40t69 -33.5l158 -76q47 29 84.5 78t37.5 102q0 37 -15 65.5t-39.5 51t-54.5 40t-59 31.5l-161 78q-29 -10 -55.5 -24.5t-48 -34t-35 -45t-13.5 -58.5z" />
<glyph unicode="&#xa8;" horiz-adv-x="491" d="M-90 1346q0 51 40 83.5t87 32.5t87 -32.5t40 -83.5q0 -55 -36 -92t-91 -37t-91 36.5t-36 92.5zM328 1346q0 51 40 83.5t87 32.5t87 -32.5t40 -83.5q0 -55 -36 -92t-91 -37t-91 36.5t-36 92.5z" />
<glyph unicode="&#xa9;" horiz-adv-x="1638" d="M57 725q0 158 60.5 296t164 241.5t242 164t295.5 60.5q158 0 296 -60.5t241.5 -164t164 -241.5t60.5 -296t-60.5 -296t-164 -241.5t-241.5 -164t-296 -60.5t-296 60.5t-241.5 164t-164 241.5t-60.5 296zM193 725q0 -129 49 -243.5t134 -199.5t199.5 -134.5t243.5 -49.5 t244 49.5t200 134.5t134 199.5t49 243.5t-49 243.5t-134 199.5t-200 134.5t-244 49.5t-243.5 -49.5t-199.5 -134.5t-134 -199.5t-49 -243.5zM371 731q0 104 29.5 190.5t86 147.5t140.5 95t192 34q154 0 258.5 -79t128.5 -234h-157q-20 76 -72.5 121t-155.5 45 q-147 0 -219 -84t-72 -232q0 -68 19.5 -126t57.5 -102t93.5 -69.5t124.5 -25.5q98 0 152.5 47t71.5 127h157q-33 -147 -133 -234.5t-248 -87.5q-106 0 -191 34t-143.5 95.5t-89 147.5t-30.5 190z" />
<glyph unicode="&#xaa;" horiz-adv-x="690" d="M70 1034q0 76 41 119t102 63.5t131 24.5t127 4h25v21q0 41 -36 69.5t-104 28.5q-51 0 -98 -16.5t-84 -51.5l-72 93q49 43 117 64.5t135 21.5q88 0 143.5 -17.5t84 -45.5t39 -64.5t10.5 -75.5v-402h-135v91l-4 2q-29 -59 -81.5 -82t-123.5 -23q-41 0 -80 11.5t-70 33 t-49 54t-18 77.5zM205 1042q0 -43 38 -58t85 -15q86 0 127 39t41 100v39h-4q-43 0 -93.5 -2t-93.5 -11.5t-71.5 -31t-28.5 -60.5z" />
<glyph unicode="&#xab;" horiz-adv-x="1024" d="M96 498l297 442l127 -84l-239 -358l241 -359l-127 -84zM502 498l297 442l127 -84l-240 -358l242 -359l-127 -84z" />
<glyph unicode="&#xac;" horiz-adv-x="1363" d="M135 700v160h1094v-571h-160v411h-934z" />
<glyph unicode="&#xad;" horiz-adv-x="647" d="M72 410v172h503v-172h-503z" />
<glyph unicode="&#xae;" horiz-adv-x="1638" d="M57 725q0 158 60.5 296t164 241.5t242 164t295.5 60.5q158 0 296 -60.5t241.5 -164t164 -241.5t60.5 -296t-60.5 -296t-164 -241.5t-241.5 -164t-296 -60.5t-296 60.5t-241.5 164t-164 241.5t-60.5 296zM193 725q0 -129 49 -243.5t134 -199.5t199.5 -134.5t243.5 -49.5 t244 49.5t200 134.5t134 199.5t49 243.5t-49 243.5t-134 199.5t-200 134.5t-244 49.5t-243.5 -49.5t-199.5 -134.5t-134 -199.5t-49 -243.5zM526 295v870h336q158 0 232.5 -67.5t74.5 -194.5q0 -115 -59 -172t-149 -67l227 -369h-168l-217 356h-117v-356h-160zM686 786h117 q37 0 73.5 3.5t66.5 15.5t48.5 36.5t18.5 67.5t-18.5 67.5t-48.5 37t-66.5 14.5t-73.5 2h-117v-244z" />
<glyph unicode="&#xaf;" horiz-adv-x="491" d="M-49 1229v135h590v-135h-590z" />
<glyph unicode="&#xb0;" horiz-adv-x="819" d="M104 1169q0 63 24 118.5t66 96.5t97 66t119 25q63 0 118.5 -25t96.5 -66t65.5 -96t24.5 -119q0 -63 -24.5 -118.5t-65.5 -97.5t-96.5 -65.5t-118.5 -23.5t-118.5 23.5t-97.5 65.5t-66 97.5t-24 118.5zM240 1169q0 -72 49 -121t121 -49t121 49.5t49 120.5q0 72 -49.5 121 t-120.5 49q-72 0 -121 -49t-49 -121z" />
<glyph unicode="&#xb1;" horiz-adv-x="1363" d="M135 104v160h1094v-160h-1094zM135 645v160h467v334h160v-334h467v-160h-467v-307h-160v307h-467z" />
<glyph unicode="&#xb2;" horiz-adv-x="739" d="M53 592v156l367 327q31 29 61.5 66t30.5 84q0 53 -39 83.5t-94 30.5q-59 0 -97 -32.5t-42 -87.5l-172 12q10 119 97 181.5t214 62.5q63 0 118.5 -15.5t97.5 -46.5t65.5 -77t23.5 -107q0 -82 -41 -141.5t-104 -112.5l-289 -248h436v-135h-633z" />
<glyph unicode="&#xb3;" horiz-adv-x="739" d="M49 782l170 41q16 -51 52 -79.5t102 -28.5q63 0 110 35.5t47 95.5q0 43 -18 68.5t-49 40t-68 18.5t-73 4h-35v135h37q35 0 67.5 3t59 15.5t42 36t15.5 62.5q0 49 -37 79.5t-96 30.5q-49 0 -87 -23.5t-55 -68.5l-170 41q31 98 115 142.5t189 44.5q61 0 115.5 -14.5t95 -43 t65.5 -71.5t25 -101q0 -72 -43 -126t-117 -70v-5q90 -10 136 -70.5t46 -139.5q0 -61 -25.5 -108.5t-69.5 -80.5t-101.5 -49t-120.5 -16q-117 0 -205 47t-119 155z" />
<glyph unicode="&#xb4;" horiz-adv-x="491" d="M111 1155l213 295h262l-305 -295h-170z" />
<glyph unicode="&#xb6;" horiz-adv-x="1228" d="M104 1030q0 201 125 310.5t342 109.5h510v-1708h-159v1573h-230v-1573h-160v909q-94 0 -172.5 30t-135 80t-88.5 119.5t-32 149.5z" />
<glyph unicode="&#xb7;" horiz-adv-x="569" d="M150 621q0 55 39.5 95t95.5 40q55 0 95 -40t40 -95t-40 -95.5t-95 -40.5t-95 40.5t-40 95.5z" />
<glyph unicode="&#xb8;" horiz-adv-x="491" d="M10 -420l39 82q76 -31 160 -31q18 0 39.5 4.5t41 13.5t32 25.5t12.5 42.5q0 39 -19.5 57.5t-48 23.5t-62.5 0t-63 -13l-43 37l125 178h101l-91 -125h60q35 0 68.5 -8t60.5 -26.5t43 -46t16 -66.5q0 -55 -23.5 -92t-60.5 -59.5t-83 -33t-89 -10.5q-55 0 -109.5 11.5 t-105.5 35.5z" />
<glyph unicode="&#xb9;" horiz-adv-x="739" d="M55 1274l262 201h146v-883h-148v735l-174 -147z" />
<glyph unicode="&#xba;" horiz-adv-x="790" d="M59 1165q0 141 91 225.5t245 84.5t245 -84t91 -226q0 -141 -91 -224t-245 -83t-245 83t-91 224zM207 1165q0 -86 48 -135t140 -49t140.5 49t48.5 135t-48.5 136.5t-140.5 50.5t-140 -50.5t-48 -136.5z" />
<glyph unicode="&#xbb;" horiz-adv-x="1024" d="M96 856l127 84l299 -442l-297 -443l-127 84l240 359zM502 856l127 84l299 -442l-297 -443l-127 84l239 359z" />
<glyph unicode="&#xbc;" horiz-adv-x="1708" d="M68 1274l262 201h145v-883h-147v735l-174 -147zM311 0l899 1516l123 -66l-899 -1516zM977 193v118l375 572h161v-555h127v-135h-127v-193h-135v193h-401zM1124 328h242v383h-4z" />
<glyph unicode="&#xbd;" horiz-adv-x="1708" d="M63 1274l263 201h145v-883h-147v735l-174 -147zM287 0l899 1516l123 -66l-899 -1516zM1012 0v156l366 327q31 29 61.5 66t30.5 84q0 53 -38.5 84t-94.5 31q-59 0 -97 -33t-42 -88l-172 12q10 119 97 181.5t214 62.5q63 0 118.5 -15.5t97.5 -46t65.5 -77t23.5 -107.5 q0 -82 -40.5 -141.5t-104.5 -112.5l-289 -248h437v-135h-633z" />
<glyph unicode="&#xbe;" horiz-adv-x="1708" d="M47 782l170 41q16 -51 52 -79.5t102 -28.5q63 0 110 35.5t47 95.5q0 43 -18 68.5t-49 40t-68 18.5t-74 4h-34v135h37q35 0 67.5 3t59 15.5t42 36t15.5 62.5q0 49 -37 79.5t-96 30.5q-49 0 -87 -23.5t-55 -68.5l-170 41q31 98 115 142.5t189 44.5q61 0 115.5 -14.5t95 -43 t65.5 -71.5t25 -101q0 -72 -43 -126t-117 -70v-5q90 -10 136 -70.5t46 -139.5q0 -61 -25.5 -108.5t-69.5 -80.5t-101.5 -49t-120.5 -16q-117 0 -205 47t-119 155zM393 0l899 1516l123 -66l-899 -1516zM1018 193v118l375 572h161v-555h127v-135h-127v-193h-135v193h-401z M1178 328h241v383h-4z" />
<glyph unicode="&#xbf;" horiz-adv-x="1024" d="M66 -113q0 78 22.5 136.5t63.5 109.5l122 127l21 19q33 31 52.5 52t30.5 44.5t15 52.5t4 72v90h197v-125q0 -55 -8 -92t-24.5 -67t-45.5 -57.5t-67 -66.5q-33 -31 -66 -62.5t-59.5 -65.5t-44 -72.5t-17.5 -83.5q0 -47 17.5 -87t46 -69t68.5 -45t85 -16q100 0 163 63 t75 166l209 -21q-27 -178 -149 -279.5t-302 -101.5q-86 0 -160.5 26t-130 74t-87 118.5t-31.5 160.5zM362 872q0 55 40 95.5t96 40.5q55 0 95 -40t40 -96q0 -55 -40 -95t-95 -40t-95.5 40t-40.5 95z" />
<glyph unicode="&#xc0;" horiz-adv-x="1441" d="M2 0l639 1450h178l621 -1450h-230l-145 358h-690l-144 -358h-229zM381 1827h262l213 -295h-170zM444 530h549l-270 666h-4z" />
<glyph unicode="&#xc1;" horiz-adv-x="1441" d="M2 0l639 1450h178l621 -1450h-230l-145 358h-690l-144 -358h-229zM444 530h549l-270 666h-4zM586 1532l213 295h262l-305 -295h-170z" />
<glyph unicode="&#xc2;" horiz-adv-x="1441" d="M2 0l639 1450h178l621 -1450h-230l-145 358h-690l-144 -358h-229zM383 1532l229 295h217l230 -295h-187l-151 197l-152 -197h-186zM444 530h549l-270 666h-4z" />
<glyph unicode="&#xc3;" horiz-adv-x="1441" d="M2 0l639 1450h178l621 -1450h-230l-145 358h-690l-144 -358h-229zM377 1556q6 39 22 78t42 69t62 48t81 18q47 0 89 -15t83 -32q31 -12 54 -23q24 -11 56 -11q41 0 66 26q25 27 35 64h98q-6 -39 -21 -77q-14 -38 -36 -69q-23 -31 -57 -49t-79 -18q-43 0 -85 13t-80 30 q-31 12 -66 25t-70 14q-39 0 -62 -28q-24 -28 -34 -63h-98zM444 530h549l-270 666h-4z" />
<glyph unicode="&#xc4;" horiz-adv-x="1441" d="M2 0l639 1450h178l621 -1450h-230l-145 358h-690l-144 -358h-229zM385 1722q0 51 40 84t87 33t87 -33t40 -84q0 -55 -36 -92t-91 -37t-91 37t-36 92zM444 530h549l-270 666h-4zM803 1722q0 51 40 84t87 33t87 -33t40 -84q0 -55 -36 -92t-91 -37t-91 37t-36 92z" />
<glyph unicode="&#xc5;" horiz-adv-x="1441" d="M2 0l639 1450h178l621 -1450h-230l-145 358h-690l-144 -358h-229zM444 530h549l-270 666h-4zM512 1690q0 43 17 79q17 37 46 65t67 43t79 15q43 0 81 -15t66 -43q29 -28 45 -64t17 -78q0 -43 -17 -80q-16 -37 -45 -65t-66 -43q-38 -15 -81 -15q-41 0 -79 15t-67 43 t-46 64t-17 79zM598 1690q0 -49 38 -82t85 -33t85 33t38 82q0 51 -37 84t-86 32q-49 0 -86 -32q-37 -33 -37 -84z" />
<glyph unicode="&#xc6;" horiz-adv-x="1972" d="M-16 0l938 1450h933v-184h-604v-432h568v-185h-568v-465h629v-184h-825v352h-623l-207 -352h-241zM539 537h516v729h-39z" />
<glyph unicode="&#xc7;" horiz-adv-x="1441" d="M96 713q0 168 56 310q55 142 154 246q99 103 239 161q139 57 307 57q143 0 282 -55q138 -55 226 -170l-164 -125q-61 80 -156 123q-94 43 -194 43q-123 0 -222 -47q-99 -46 -170 -126t-110 -187q-39 -108 -39 -230q0 -115 37 -217t107 -181q70 -78 169 -122 q100 -45 228 -46q125 0 219 52q94 51 160 143l166 -125q-16 -23 -58 -64q-41 -42 -108 -84q-68 -42 -163 -74t-220 -32q-172 0 -311 66q-138 66 -235 172t-149 240q-51 134 -51 272zM526 -420l39 82q76 -31 160 -31q18 0 40 4t41 14q19 9 32 25q12 16 12 43q0 39 -20 58 q-19 18 -48 23t-62 0q-34 -5 -63 -13l-43 37l125 178h101l-90 -125h59q35 0 69 -8t60 -27q27 -18 43 -46t16 -66q0 -55 -23 -93q-24 -37 -61 -59q-37 -23 -83 -33t-89 -10q-55 0 -109 11t-106 36z" />
<glyph unicode="&#xc8;" horiz-adv-x="1251" d="M186 0v1450h936v-184h-739v-432h688v-185h-688v-465h776v-184h-973zM287 1827h262l213 -295h-170z" />
<glyph unicode="&#xc9;" horiz-adv-x="1251" d="M186 0v1450h936v-184h-739v-432h688v-185h-688v-465h776v-184h-973zM492 1532l213 295h262l-305 -295h-170z" />
<glyph unicode="&#xca;" horiz-adv-x="1251" d="M186 0v1450h936v-184h-739v-432h688v-185h-688v-465h776v-184h-973zM289 1532l229 295h217l230 -295h-187l-151 197l-152 -197h-186z" />
<glyph unicode="&#xcb;" horiz-adv-x="1251" d="M186 0v1450h936v-184h-739v-432h688v-185h-688v-465h776v-184h-973zM291 1722q0 51 40 84t87 33t87 -33t40 -84q0 -55 -36 -92t-91 -37t-91 37t-36 92zM709 1722q0 51 40 84t87 33t87 -33t40 -84q0 -55 -36 -92t-91 -37t-92 37q-36 37 -35 92z" />
<glyph unicode="&#xcc;" horiz-adv-x="569" d="M-55 1827h262l213 -295h-170zM186 0v1450h197v-1450h-197z" />
<glyph unicode="&#xcd;" horiz-adv-x="569" d="M150 1532l212 295h263l-306 -295h-169zM186 0v1450h197v-1450h-197z" />
<glyph unicode="&#xce;" horiz-adv-x="569" d="M-53 1532l229 295h217l230 -295h-187l-151 197l-152 -197h-186zM186 0v1450h197v-1450h-197z" />
<glyph unicode="&#xcf;" horiz-adv-x="569" d="M-51 1722q0 51 40 84t87 33t87 -33t40 -84q0 -55 -36 -92t-91 -37t-91 37t-36 92zM186 0v1450h197v-1450h-197zM367 1722q0 51 40 84t87 33t87 -33t40 -84q0 -55 -36 -92t-91 -37t-92 37q-36 37 -35 92z" />
<glyph unicode="&#xd0;" horiz-adv-x="1517" d="M6 688v135h148v627h505q154 0 269.5 -35t200.5 -93t141.5 -134t89.5 -156t47 -159.5t14 -147.5q0 -139 -51 -269t-151.5 -231.5t-249 -163t-342.5 -61.5h-473v688h-148zM350 184h248q125 0 236.5 34t195.5 101.5t133 169t49 236.5q0 70 -22.5 163t-85 177t-173 142.5 t-286.5 58.5h-295v-443h479v-135h-479v-504z" />
<glyph unicode="&#xd1;" horiz-adv-x="1630" d="M186 0v1450h258l799 -1192h4v1192h197v-1450h-250l-807 1192h-4v-1192h-197zM471 1556q6 39 23 78q16 39 42 69t61 48q36 18 81 18q47 0 89 -15t83 -32q31 -12 54 -23q24 -11 57 -11q41 0 65 26q25 27 35 64h98q-6 -39 -20 -77t-37 -69t-56 -49q-34 -18 -79 -18 q-43 0 -85 13t-81 30q-31 12 -66 25t-69 14q-39 0 -63 -28t-34 -63h-98z" />
<glyph unicode="&#xd2;" horiz-adv-x="1703" d="M96 725q0 162 57 301q56 139 155 242q99 102 239 160q139 58 305 59q166 0 305 -59q139 -58 239 -160q99 -102 155 -242q56 -139 57 -301q0 -162 -57 -301q-56 -139 -155 -242q-99 -102 -239 -160q-139 -59 -305 -59t-305 59q-139 58 -239 160q-99 102 -155 242 q-56 139 -57 301zM305 725q0 -119 39 -224t111 -184q72 -78 172 -123q100 -47 225 -47t225 47q100 46 172 123q72 78 111 184q39 105 39 224t-39 224t-111 184q-72 78 -172 123q-100 46 -225 47q-125 0 -225 -47q-100 -46 -172 -123q-72 -78 -111 -184q-39 -105 -39 -224z M512 1827h262l213 -295h-170z" />
<glyph unicode="&#xd3;" horiz-adv-x="1703" d="M96 725q0 162 57 301q56 139 155 242q99 102 239 160q139 58 305 59q166 0 305 -59q139 -58 239 -160q99 -102 155 -242q56 -139 57 -301q0 -162 -57 -301q-56 -139 -155 -242q-99 -102 -239 -160q-139 -59 -305 -59t-305 59q-139 58 -239 160q-99 102 -155 242 q-56 139 -57 301zM305 725q0 -119 39 -224t111 -184q72 -78 172 -123q100 -47 225 -47t225 47q100 46 172 123q72 78 111 184q39 105 39 224t-39 224t-111 184q-72 78 -172 123q-100 46 -225 47q-125 0 -225 -47q-100 -46 -172 -123q-72 -78 -111 -184q-39 -105 -39 -224z M717 1532l213 295h262l-305 -295h-170z" />
<glyph unicode="&#xd4;" horiz-adv-x="1703" d="M96 725q0 162 57 301q56 139 155 242q99 102 239 160q139 58 305 59q166 0 305 -59q139 -58 239 -160q99 -102 155 -242q56 -139 57 -301q0 -162 -57 -301q-56 -139 -155 -242q-99 -102 -239 -160q-139 -59 -305 -59t-305 59q-139 58 -239 160q-99 102 -155 242 q-56 139 -57 301zM305 725q0 -119 39 -224t111 -184q72 -78 172 -123q100 -47 225 -47t225 47q100 46 172 123q72 78 111 184q39 105 39 224t-39 224t-111 184q-72 78 -172 123q-100 46 -225 47q-125 0 -225 -47q-100 -46 -172 -123q-72 -78 -111 -184q-39 -105 -39 -224z M514 1532l229 295h218l229 -295h-186l-152 197l-152 -197h-186z" />
<glyph unicode="&#xd5;" horiz-adv-x="1703" d="M96 725q0 162 57 301q56 139 155 242q99 102 239 160q139 58 305 59q166 0 305 -59q139 -58 239 -160q99 -102 155 -242q56 -139 57 -301q0 -162 -57 -301q-56 -139 -155 -242q-99 -102 -239 -160q-139 -59 -305 -59t-305 59q-139 58 -239 160q-99 102 -155 242 q-56 139 -57 301zM305 725q0 -119 39 -224t111 -184q72 -78 172 -123q100 -47 225 -47t225 47q100 46 172 123q72 78 111 184q39 105 39 224t-39 224t-111 184q-72 78 -172 123q-100 46 -225 47q-125 0 -225 -47q-100 -46 -172 -123q-72 -78 -111 -184q-39 -105 -39 -224z M508 1556q6 39 22 78t42 69t62 48t81 18q47 0 89 -15t83 -32q31 -12 54 -23q24 -11 56 -11q41 0 66 26q25 27 35 64h98q-6 -39 -20 -77t-37 -69t-57 -49t-78 -18q-43 0 -85 13t-81 30q-31 12 -66 25t-70 14q-39 0 -62 -28q-24 -28 -34 -63h-98z" />
<glyph unicode="&#xd6;" horiz-adv-x="1703" d="M96 725q0 162 57 301q56 139 155 242q99 102 239 160q139 58 305 59q166 0 305 -59q139 -58 239 -160q99 -102 155 -242q56 -139 57 -301q0 -162 -57 -301q-56 -139 -155 -242q-99 -102 -239 -160q-139 -59 -305 -59t-305 59q-139 58 -239 160q-99 102 -155 242 q-56 139 -57 301zM305 725q0 -119 39 -224t111 -184q72 -78 172 -123q100 -47 225 -47t225 47q100 46 172 123q72 78 111 184q39 105 39 224t-39 224t-111 184q-72 78 -172 123q-100 46 -225 47q-125 0 -225 -47q-100 -46 -172 -123q-72 -78 -111 -184q-39 -105 -39 -224z M516 1722q0 51 40 84t87 33t87 -33t40 -84q0 -55 -36 -92t-91 -37t-91 37t-36 92zM934 1722q0 51 40 84t87 33t87 -33t40 -84q0 -55 -36 -92t-91 -37t-91 37t-36 92z" />
<glyph unicode="&#xd7;" horiz-adv-x="1363" d="M135 1055l113 112l434 -434l436 434l111 -112l-434 -434l434 -435l-115 -112l-432 434l-432 -434l-111 114l430 433z" />
<glyph unicode="&#xd8;" horiz-adv-x="1703" d="M96 725q0 162 56.5 301t156 241.5t238.5 161t305 58.5q137 0 256 -41t215 -115l170 185l86 -78l-170 -185q94 -100 146.5 -235t52.5 -293q0 -162 -56.5 -301t-156 -241.5t-238.5 -161t-305 -58.5q-141 0 -262 42t-217 120l-172 -186l-88 77l174 191q-92 102 -141.5 233 t-49.5 285zM305 725q0 -106 31 -200.5t88 -170.5l766 834q-68 53 -153 84t-185 31q-125 0 -225.5 -46.5t-172 -124t-110.5 -183t-39 -224.5zM504 268q70 -57 157 -89t191 -32q125 0 225.5 46.5t172 124t110.5 183t39 224.5q0 111 -33 207t-94 174z" />
<glyph unicode="&#xd9;" horiz-adv-x="1441" d="M160 530v920h196v-889q0 -68 19 -140q18 -73 61 -134t113 -101q70 -39 172 -39t172 39t113 101q43 61 61 134t18 140v889h197v-920q0 -127 -43 -230t-119 -179t-178 -117t-221 -41t-221 41t-178 117t-119 179t-43 230zM381 1827h262l213 -295h-170z" />
<glyph unicode="&#xda;" horiz-adv-x="1441" d="M160 530v920h196v-889q0 -68 19 -140q18 -73 61 -134t113 -101q70 -39 172 -39t172 39t113 101q43 61 61 134t18 140v889h197v-920q0 -127 -43 -230t-119 -179t-178 -117t-221 -41t-221 41t-178 117t-119 179t-43 230zM586 1532l213 295h262l-305 -295h-170z" />
<glyph unicode="&#xdb;" horiz-adv-x="1441" d="M160 530v920h196v-889q0 -68 19 -140q18 -73 61 -134t113 -101q70 -39 172 -39t172 39t113 101q43 61 61 134t18 140v889h197v-920q0 -127 -43 -230t-119 -179t-178 -117t-221 -41t-221 41t-178 117t-119 179t-43 230zM383 1532l229 295h217l230 -295h-187l-151 197 l-152 -197h-186z" />
<glyph unicode="&#xdc;" horiz-adv-x="1441" d="M160 530v920h196v-889q0 -68 19 -140q18 -73 61 -134t113 -101q70 -39 172 -39t172 39t113 101q43 61 61 134t18 140v889h197v-920q0 -127 -43 -230t-119 -179t-178 -117t-221 -41t-221 41t-178 117t-119 179t-43 230zM385 1722q0 51 40 84t87 33t87 -33t40 -84 q0 -55 -36 -92t-91 -37t-91 37t-36 92zM803 1722q0 51 40 84t87 33t87 -33t40 -84q0 -55 -36 -92t-91 -37t-91 37t-36 92z" />
<glyph unicode="&#xdd;" horiz-adv-x="1253" d="M-20 1450h251l396 -637l407 637h240l-549 -832v-618h-197v618zM492 1532l213 295h262l-305 -295h-170z" />
<glyph unicode="&#xde;" horiz-adv-x="1214" d="M186 0v1450h197v-297h313q139 0 229.5 -38t142.5 -96t72.5 -131t20.5 -140q0 -68 -20.5 -140.5t-72.5 -131t-142 -96.5t-230 -38h-313v-342h-197zM383 514h258q57 0 113.5 9t100.5 34t70.5 71t26.5 120t-26.5 119.5t-70.5 70.5t-100.5 34t-113.5 9h-258v-467z" />
<glyph unicode="&#xdf;" horiz-adv-x="1251" d="M139 0v1042q0 109 18.5 205t68.5 169t140.5 115t233.5 42q86 0 161 -23.5t132 -70.5t90 -117t33 -160q0 -127 -61.5 -207t-166.5 -110v-4q61 -10 123 -39t112 -81t82 -129t32 -181q0 -111 -37 -199t-103.5 -149.5t-157.5 -94.5t-198 -33q-76 0 -145 19v166 q51 -12 108 -13q152 0 244 83t92 237q0 82 -27.5 141.5t-76 98t-113 58t-139.5 19.5h-29v172h33q104 0 167.5 59.5t63.5 164.5q0 61 -20.5 104t-53 68.5t-73.5 37t-82 11.5q-78 0 -129 -25.5t-82 -70.5t-43 -106.5t-12 -133.5v-1065h-185z" />
<glyph unicode="&#xe0;" horiz-adv-x="1062" d="M92 266q0 94 42 158q42 63 115 103t170 58q97 17 208 17h135v41q0 37 -14 74t-43 66q-29 30 -72 47t-103 18q-53 0 -93 -10t-72 -26q-33 -15 -60 -36q-27 -20 -51 -39l-111 115q78 72 181 107q102 36 204 36q106 0 184 -26q77 -27 126 -72t72 -103q24 -58 24 -122v-496 q0 -51 2 -94t6 -82h-164q-6 74 -6 147h-4q-61 -94 -145 -133t-195 -39q-68 0 -129 19q-61 18 -108 55q-46 37 -72 91q-27 54 -27 126zM193 1450h262l213 -295h-170zM276 281q0 -84 57 -121q56 -37 152 -37q76 0 129 25q53 26 86 67t48 91q14 50 14 100v61h-98q-66 0 -135 -7 t-125 -28q-56 -20 -92 -57t-36 -94z" />
<glyph unicode="&#xe1;" horiz-adv-x="1062" d="M92 266q0 94 42 158q42 63 115 103t170 58q97 17 208 17h135v41q0 37 -14 74t-43 66q-29 30 -72 47t-103 18q-53 0 -93 -10t-72 -26q-33 -15 -60 -36q-27 -20 -51 -39l-111 115q78 72 181 107q102 36 204 36q106 0 184 -26q77 -27 126 -72t72 -103q24 -58 24 -122v-496 q0 -51 2 -94t6 -82h-164q-6 74 -6 147h-4q-61 -94 -145 -133t-195 -39q-68 0 -129 19q-61 18 -108 55q-46 37 -72 91q-27 54 -27 126zM276 281q0 -84 57 -121q56 -37 152 -37q76 0 129 25q53 26 86 67t48 91q14 50 14 100v61h-98q-66 0 -135 -7t-125 -28q-56 -20 -92 -57 t-36 -94zM397 1155l213 295h262l-305 -295h-170z" />
<glyph unicode="&#xe2;" horiz-adv-x="1062" d="M92 266q0 94 42 158q42 63 115 103t170 58q97 17 208 17h135v41q0 37 -14 74t-43 66q-29 30 -72 47t-103 18q-53 0 -93 -10t-72 -26q-33 -15 -60 -36q-27 -20 -51 -39l-111 115q78 72 181 107q102 36 204 36q106 0 184 -26q77 -27 126 -72t72 -103q24 -58 24 -122v-496 q0 -51 2 -94t6 -82h-164q-6 74 -6 147h-4q-61 -94 -145 -133t-195 -39q-68 0 -129 19q-61 18 -108 55q-46 37 -72 91q-27 54 -27 126zM195 1155l229 295h217l229 -295h-186l-152 197l-151 -197h-186zM276 281q0 -84 57 -121q56 -37 152 -37q76 0 129 25q53 26 86 67t48 91 q14 50 14 100v61h-98q-66 0 -135 -7t-125 -28q-56 -20 -92 -57t-36 -94z" />
<glyph unicode="&#xe3;" horiz-adv-x="1062" d="M92 266q0 94 42 158q42 63 115 103t170 58q97 17 208 17h135v41q0 37 -14 74t-43 66q-29 30 -72 47t-103 18q-53 0 -93 -10t-72 -26q-33 -15 -60 -36q-27 -20 -51 -39l-111 115q78 72 181 107q102 36 204 36q106 0 184 -26q77 -27 126 -72t72 -103q24 -58 24 -122v-496 q0 -51 2 -94t6 -82h-164q-6 74 -6 147h-4q-61 -94 -145 -133t-195 -39q-68 0 -129 19q-61 18 -108 55q-46 37 -72 91q-27 54 -27 126zM188 1180q6 39 23 77q16 39 42 69t61 48q36 18 81 19q47 0 89 -16q42 -15 83 -31q31 -12 55 -24q24 -11 56 -11q41 0 65 26q25 27 35 64 h99q-6 -39 -21 -77q-14 -38 -37 -69t-56 -49q-34 -18 -79 -18q-43 0 -85 13t-81 30q-31 12 -65 25q-35 13 -70 14q-39 0 -62 -28q-24 -28 -34 -62h-99zM276 281q0 -84 57 -121q56 -37 152 -37q76 0 129 25q53 26 86 67t48 91q14 50 14 100v61h-98q-66 0 -135 -7t-125 -28 q-56 -20 -92 -57t-36 -94z" />
<glyph unicode="&#xe4;" horiz-adv-x="1062" d="M92 266q0 94 42 158q42 63 115 103t170 58q97 17 208 17h135v41q0 37 -14 74t-43 66q-29 30 -72 47t-103 18q-53 0 -93 -10t-72 -26q-33 -15 -60 -36q-27 -20 -51 -39l-111 115q78 72 181 107q102 36 204 36q106 0 184 -26q77 -27 126 -72t72 -103q24 -58 24 -122v-496 q0 -51 2 -94t6 -82h-164q-6 74 -6 147h-4q-61 -94 -145 -133t-195 -39q-68 0 -129 19q-61 18 -108 55q-46 37 -72 91q-27 54 -27 126zM197 1346q0 51 40 84q40 32 87 32t87 -32q40 -33 40 -84q0 -55 -36 -93q-36 -37 -91 -36q-55 0 -92 36q-36 37 -35 93zM276 281 q0 -84 57 -121q56 -37 152 -37q76 0 129 25q53 26 86 67t48 91q14 50 14 100v61h-98q-66 0 -135 -7t-125 -28q-56 -20 -92 -57t-36 -94zM614 1346q0 51 40 84q40 32 87 32t87 -32q40 -33 40 -84q0 -55 -35 -93q-36 -37 -92 -36q-55 0 -91 36q-36 37 -36 93z" />
<glyph unicode="&#xe5;" horiz-adv-x="1062" d="M92 266q0 94 42 158q42 63 115 103t170 58q97 17 208 17h135v41q0 37 -14 74t-43 66q-29 30 -72 47t-103 18q-53 0 -93 -10t-72 -26q-33 -15 -60 -36q-27 -20 -51 -39l-111 115q78 72 181 107q102 36 204 36q106 0 184 -26q77 -27 126 -72t72 -103q24 -58 24 -122v-496 q0 -51 2 -94t6 -82h-164q-6 74 -6 147h-4q-61 -94 -145 -133t-195 -39q-68 0 -129 19q-61 18 -108 55q-46 37 -72 91q-27 54 -27 126zM276 281q0 -84 57 -121q56 -37 152 -37q76 0 129 25q53 26 86 67t48 91q14 50 14 100v61h-98q-66 0 -135 -7t-125 -28q-56 -20 -92 -57 t-36 -94zM324 1333q0 43 17 80t46 65t67 43t78 15q43 0 81 -15t67 -43t45 -64t16 -79t-16 -80t-45 -64q-29 -28 -67 -43t-81 -15q-41 0 -78 15q-38 15 -67 43t-46 63q-17 36 -17 79zM410 1333q0 -49 37 -82q38 -33 85 -32q47 0 85 32q38 33 38 82q0 51 -37 84t-86 33 t-86 -33t-36 -84z" />
<glyph unicode="&#xe6;" horiz-adv-x="1744" d="M80 276q0 86 36 142.5t93 88.5t130 45t144 13h287v31q0 104 -61.5 178t-182.5 74q-86 0 -147.5 -28.5t-126.5 -82.5l-115 117q78 70 180.5 105.5t206.5 35.5q100 0 195.5 -34.5t152.5 -120.5q25 27 55.5 54.5t71.5 50t93.5 36.5t119.5 14q139 0 227.5 -53t138.5 -130 t68.5 -162t18.5 -146v-86h-723q0 -59 19.5 -112.5t57.5 -93.5t92 -64.5t124 -24.5q88 0 151.5 44t100.5 109l149 -112q-86 -98 -179 -149.5t-226 -51.5q-117 0 -215 44t-164 155q-68 -92 -165 -145.5t-232 -53.5q-98 0 -169 27.5t-117 71.5t-67.5 100.5t-21.5 113.5z M276 276q0 -72 59.5 -118.5t143.5 -46.5q57 0 109.5 19.5t92.5 55t64.5 87t24.5 116.5v29h-291q-106 0 -154.5 -35t-48.5 -107zM942 565h526q-2 55 -16 104.5t-45 86.5t-79 58.5t-118 21.5q-66 0 -114.5 -21.5t-83.5 -58.5t-52.5 -86t-17.5 -105z" />
<glyph unicode="&#xe7;" horiz-adv-x="987" d="M92 481q0 113 37 207t103 162q67 68 160 105q93 38 208 38q106 0 204 -38q97 -38 169 -115l-139 -127q-51 53 -108 81q-56 28 -134 27q-76 0 -132 -27q-56 -28 -94 -76t-58 -111q-19 -62 -19 -130t22 -128q23 -60 64 -105t98 -71t129 -26q78 0 133 28t103 81l131 -131 q-72 -80 -167 -115t-202 -35q-113 0 -206 37t-161 104t-104 159q-37 93 -37 206zM319 -420l39 82q76 -31 160 -31q18 0 40 4t41 14q19 9 32 25q12 16 12 43q0 39 -19 58q-19 18 -49 23q-29 5 -62 0q-34 -5 -62 -13l-43 37l124 178h101l-90 -125h59q35 0 69 -8t60 -27 q27 -18 43 -46t17 -66q0 -55 -24 -93q-24 -37 -60 -59q-37 -23 -83 -33t-89 -10q-55 0 -110 11q-54 11 -106 36z" />
<glyph unicode="&#xe8;" d="M82 485q0 109 38 202t104 162q67 69 159 107q92 39 201 39q129 0 218 -45t146 -117q57 -73 83 -164t26 -186v-65h-778q0 -63 27 -116q28 -52 73 -89t104 -57t123 -21q86 0 150 40q63 40 116 106l140 -107q-154 -199 -430 -199q-115 0 -208 39t-158 108t-99 162 q-35 93 -35 201zM229 1450h263l213 -295h-170zM279 565h581q-2 61 -19 113q-17 51 -53 89q-35 38 -87 59q-52 22 -121 22q-68 0 -124 -26t-96 -66q-39 -41 -60 -91q-22 -50 -21 -100z" />
<glyph unicode="&#xe9;" d="M82 485q0 109 38 202t104 162q67 69 159 107q92 39 201 39q129 0 218 -45t146 -117q57 -73 83 -164t26 -186v-65h-778q0 -63 27 -116q28 -52 73 -89t104 -57t123 -21q86 0 150 40q63 40 116 106l140 -107q-154 -199 -430 -199q-115 0 -208 39t-158 108t-99 162 q-35 93 -35 201zM279 565h581q-2 61 -19 113q-17 51 -53 89q-35 38 -87 59q-52 22 -121 22q-68 0 -124 -26t-96 -66q-39 -41 -60 -91q-22 -50 -21 -100zM434 1155l213 295h262l-305 -295h-170z" />
<glyph unicode="&#xea;" d="M82 485q0 109 38 202t104 162q67 69 159 107q92 39 201 39q129 0 218 -45t146 -117q57 -73 83 -164t26 -186v-65h-778q0 -63 27 -116q28 -52 73 -89t104 -57t123 -21q86 0 150 40q63 40 116 106l140 -107q-154 -199 -430 -199q-115 0 -208 39t-158 108t-99 162 q-35 93 -35 201zM231 1155l230 295h217l229 -295h-186l-152 197l-151 -197h-187zM279 565h581q-2 61 -19 113q-17 51 -53 89q-35 38 -87 59q-52 22 -121 22q-68 0 -124 -26t-96 -66q-39 -41 -60 -91q-22 -50 -21 -100z" />
<glyph unicode="&#xeb;" d="M82 485q0 109 38 202t104 162q67 69 159 107q92 39 201 39q129 0 218 -45t146 -117q57 -73 83 -164t26 -186v-65h-778q0 -63 27 -116q28 -52 73 -89t104 -57t123 -21q86 0 150 40q63 40 116 106l140 -107q-154 -199 -430 -199q-115 0 -208 39t-158 108t-99 162 q-35 93 -35 201zM233 1346q0 51 40 84q40 32 87 32t87 -32q40 -33 40 -84q0 -55 -35 -93q-36 -37 -92 -36q-55 0 -91 36q-36 37 -36 93zM279 565h581q-2 61 -19 113q-17 51 -53 89q-35 38 -87 59q-52 22 -121 22q-68 0 -124 -26t-96 -66q-39 -41 -60 -91q-22 -50 -21 -100z M651 1346q0 51 40 84q40 32 87 32t87 -32q40 -33 40 -84q0 -55 -36 -93q-36 -37 -91 -36q-55 0 -91 36q-36 37 -36 93z" />
<glyph unicode="&#xec;" horiz-adv-x="491" d="M-94 1450h262l213 -295h-170zM154 0v971h184v-971h-184z" />
<glyph unicode="&#xed;" horiz-adv-x="491" d="M111 1155l213 295h262l-305 -295h-170zM154 0v971h184v-971h-184z" />
<glyph unicode="&#xee;" horiz-adv-x="491" d="M-92 1155l229 295h217l230 -295h-187l-151 197l-152 -197h-186zM154 0v971h184v-971h-184z" />
<glyph unicode="&#xef;" horiz-adv-x="491" d="M-90 1346q0 51 40 84q40 32 87 32t87 -32q40 -33 40 -84q0 -55 -36 -93q-36 -37 -91 -36q-55 0 -91 36q-36 37 -36 93zM154 0v971h184v-971h-184zM328 1346q0 51 40 84q40 32 87 32t87 -32q40 -33 40 -84q0 -55 -36 -93q-36 -37 -91 -36q-55 0 -91 36q-36 37 -36 93z" />
<glyph unicode="&#xf0;" horiz-adv-x="1216" d="M92 485q0 106 40 198.5t109.5 162t164 109.5t202.5 40q68 0 137.5 -22.5t118.5 -79.5l4 4q-57 102 -133 193.5t-162 175.5l-219 -107l-96 94l217 109l-174 145l162 95l182 -160l221 106l107 -90l-230 -112q80 -84 149 -174.5t121 -188.5t81.5 -205.5t29.5 -226.5 q0 -129 -34.5 -235.5t-101 -182.5t-162 -117t-218.5 -41q-109 0 -203 40t-163.5 109t-109.5 162t-40 199zM289 485q0 -74 22.5 -136t63.5 -106t100.5 -70t132.5 -26q74 0 133.5 26t100.5 70t63.5 106.5t22.5 135.5q0 74 -22.5 136.5t-63.5 106.5t-100.5 69.5t-133.5 25.5 t-133 -25.5t-100 -69.5t-63.5 -106.5t-22.5 -136.5z" />
<glyph unicode="&#xf1;" d="M139 0v971h185v-150h4q35 78 121 126t198 48q70 0 134 -21q65 -22 113 -67t77 -115q29 -71 28 -167v-625h-184v573q0 68 -18 116t-49 78t-71 43t-83 13q-57 0 -107 -18q-49 -18 -86 -59q-37 -40 -57 -101t-20 -145v-500h-185zM225 1180q6 39 23 77q16 39 42 69t61 48 q36 18 81 19q47 0 89 -16q42 -15 83 -31q31 -12 54 -24q24 -11 57 -11q41 0 65 26q25 27 35 64h98q-6 -39 -20 -77t-37 -69t-56 -49q-34 -18 -79 -18q-43 0 -85 13t-81 30q-31 12 -66 25t-69 14q-39 0 -63 -28t-33 -62h-99z" />
<glyph unicode="&#xf2;" horiz-adv-x="1216" d="M92 485q0 106 40 199q40 92 110 162t164 109q94 40 202 40q109 0 203 -40t164 -109q70 -70 109 -162q40 -92 40 -199q0 -106 -40 -199t-109 -162q-70 -69 -164 -109t-203 -40t-202 40q-94 40 -164 109t-110 162t-40 199zM268 1450h262l213 -295h-170zM289 485 q0 -74 22 -136q23 -62 64 -106t100 -70t133 -26t133 26t101 70q41 44 63 106q23 62 23 136t-23 137q-23 62 -63 106q-41 44 -101 70q-59 26 -133 25q-74 0 -133 -25q-59 -26 -100 -70t-64 -106q-22 -63 -22 -137z" />
<glyph unicode="&#xf3;" horiz-adv-x="1216" d="M92 485q0 106 40 199q40 92 110 162t164 109q94 40 202 40q109 0 203 -40t164 -109q70 -70 109 -162q40 -92 40 -199q0 -106 -40 -199t-109 -162q-70 -69 -164 -109t-203 -40t-202 40q-94 40 -164 109t-110 162t-40 199zM289 485q0 -74 22 -136q23 -62 64 -106t100 -70 t133 -26t133 26t101 70q41 44 63 106q23 62 23 136t-23 137q-23 62 -63 106q-41 44 -101 70q-59 26 -133 25q-74 0 -133 -25q-59 -26 -100 -70t-64 -106q-22 -63 -22 -137zM473 1155l213 295h262l-305 -295h-170z" />
<glyph unicode="&#xf4;" horiz-adv-x="1216" d="M92 485q0 106 40 199q40 92 110 162t164 109q94 40 202 40q109 0 203 -40t164 -109q70 -70 109 -162q40 -92 40 -199q0 -106 -40 -199t-109 -162q-70 -69 -164 -109t-203 -40t-202 40q-94 40 -164 109t-110 162t-40 199zM270 1155l230 295h217l229 -295h-186l-152 197 l-151 -197h-187zM289 485q0 -74 22 -136q23 -62 64 -106t100 -70t133 -26t133 26t101 70q41 44 63 106q23 62 23 136t-23 137q-23 62 -63 106q-41 44 -101 70q-59 26 -133 25q-74 0 -133 -25q-59 -26 -100 -70t-64 -106q-22 -63 -22 -137z" />
<glyph unicode="&#xf5;" horiz-adv-x="1216" d="M92 485q0 106 40 199q40 92 110 162t164 109q94 40 202 40q109 0 203 -40t164 -109q70 -70 109 -162q40 -92 40 -199q0 -106 -40 -199t-109 -162q-70 -69 -164 -109t-203 -40t-202 40q-94 40 -164 109t-110 162t-40 199zM264 1180q6 39 23 77q16 39 42 69t61 48 q36 18 81 19q47 0 89 -16q42 -15 83 -31q31 -12 54 -24q24 -11 57 -11q41 0 65 26q25 27 35 64h98q-6 -39 -20 -77t-37 -69t-56 -49q-34 -18 -79 -18q-43 0 -85 13t-81 30q-31 12 -66 25t-69 14q-39 0 -63 -28t-34 -62h-98zM289 485q0 -74 22 -136q23 -62 64 -106t100 -70 t133 -26t133 26t101 70q41 44 63 106q23 62 23 136t-23 137q-23 62 -63 106q-41 44 -101 70q-59 26 -133 25q-74 0 -133 -25q-59 -26 -100 -70t-64 -106q-22 -63 -22 -137z" />
<glyph unicode="&#xf6;" horiz-adv-x="1216" d="M92 485q0 106 40 199q40 92 110 162t164 109q94 40 202 40q109 0 203 -40t164 -109q70 -70 109 -162q40 -92 40 -199q0 -106 -40 -199t-109 -162q-70 -69 -164 -109t-203 -40t-202 40q-94 40 -164 109t-110 162t-40 199zM272 1346q0 51 40 84q40 32 87 32t87 -32 q40 -33 40 -84q0 -55 -36 -93q-36 -37 -91 -36q-55 0 -91 36q-36 37 -36 93zM289 485q0 -74 22 -136q23 -62 64 -106t100 -70t133 -26t133 26t101 70q41 44 63 106q23 62 23 136t-23 137q-23 62 -63 106q-41 44 -101 70q-59 26 -133 25q-74 0 -133 -25q-59 -26 -100 -70 t-64 -106q-22 -63 -22 -137zM690 1346q0 51 40 84q40 32 87 32t87 -32q40 -33 40 -84q0 -55 -36 -93q-36 -37 -91 -36q-55 0 -91 36q-36 37 -36 93z" />
<glyph unicode="&#xf7;" horiz-adv-x="1363" d="M135 539v159h1094v-159h-1094zM547 274q0 55 40 95.5t95 40.5t95 -40t40 -96q0 -55 -40 -95t-95 -40t-95 40t-40 95zM547 963q0 55 40 95t95 40t95 -40t40 -95t-40 -95.5t-95 -40.5t-95 40.5t-40 95.5z" />
<glyph unicode="&#xf8;" horiz-adv-x="1216" d="M84 8l137 139q-59 66 -94 153t-35 185q0 106 40 198.5t109.5 162t164 109.5t202.5 40q98 0 182 -31.5t150 -86.5l154 153l73 -74l-153 -155q53 -66 81.5 -146t28.5 -170q0 -106 -40 -199t-109.5 -162t-163.5 -109t-203 -40q-86 0 -163.5 27t-143.5 74l-141 -142zM289 485 q0 -127 61 -209l467 476q-41 35 -92 53t-117 18q-74 0 -133 -25.5t-100 -69.5t-63.5 -106.5t-22.5 -136.5zM426 203q74 -55 182 -56q74 0 133.5 26t100.5 70t63.5 106.5t22.5 135.5q0 106 -45 183z" />
<glyph unicode="&#xf9;" d="M139 346v625h185v-574q0 -68 18 -115q18 -48 49 -78t71 -43t83 -14q57 0 106 19q49 18 86 58t58 102q20 61 20 145v500h184v-971h-184v150h-4q-35 -78 -121 -126t-198 -49q-72 0 -136 22q-63 22 -111 66q-48 45 -77 116t-29 167zM229 1450h263l213 -295h-170z" />
<glyph unicode="&#xfa;" d="M139 346v625h185v-574q0 -68 18 -115q18 -48 49 -78t71 -43t83 -14q57 0 106 19q49 18 86 58t58 102q20 61 20 145v500h184v-971h-184v150h-4q-35 -78 -121 -126t-198 -49q-72 0 -136 22q-63 22 -111 66q-48 45 -77 116t-29 167zM434 1155l213 295h262l-305 -295h-170z " />
<glyph unicode="&#xfb;" d="M139 346v625h185v-574q0 -68 18 -115q18 -48 49 -78t71 -43t83 -14q57 0 106 19q49 18 86 58t58 102q20 61 20 145v500h184v-971h-184v150h-4q-35 -78 -121 -126t-198 -49q-72 0 -136 22q-63 22 -111 66q-48 45 -77 116t-29 167zM231 1155l230 295h217l229 -295h-186 l-152 197l-151 -197h-187z" />
<glyph unicode="&#xfc;" d="M139 346v625h185v-574q0 -68 18 -115q18 -48 49 -78t71 -43t83 -14q57 0 106 19q49 18 86 58t58 102q20 61 20 145v500h184v-971h-184v150h-4q-35 -78 -121 -126t-198 -49q-72 0 -136 22q-63 22 -111 66q-48 45 -77 116t-29 167zM233 1346q0 51 40 84q40 32 87 32t87 -32 q40 -33 40 -84q0 -55 -35 -93q-36 -37 -92 -36q-55 0 -91 36q-36 37 -36 93zM651 1346q0 51 40 84q40 32 87 32t87 -32q40 -33 40 -84q0 -55 -36 -93q-36 -37 -91 -36q-55 0 -91 36q-36 37 -36 93z" />
<glyph unicode="&#xfd;" horiz-adv-x="1024" d="M23 971h213l288 -758h4l275 758h198l-460 -1180q-25 -63 -52 -116q-27 -52 -63 -89q-37 -37 -89 -57t-128 -21q-41 0 -83 6q-42 5 -81 21l23 168q55 -23 110 -22q43 0 73 11t51 33q22 22 36 50q14 29 29 65l59 154zM377 1155l213 295h262l-305 -295h-170z" />
<glyph unicode="&#xfe;" horiz-adv-x="1251" d="M139 -467v2015h185v-717h4q49 76 141 120t197 44q113 0 204 -38.5t155.5 -107.5t99 -162t34.5 -202t-34.5 -200.5t-99 -161.5t-156 -109t-203.5 -39q-98 0 -191.5 43t-146.5 121h-4v-606h-185zM324 485q0 -74 22.5 -136t63.5 -106t100 -70t133 -26t133.5 26t100.5 70 t63.5 106.5t22.5 135.5q0 74 -22.5 136.5t-63.5 106.5t-100.5 69.5t-133.5 25.5t-133 -25.5t-100 -69.5t-63.5 -106.5t-22.5 -136.5z" />
<glyph unicode="&#xff;" horiz-adv-x="1024" d="M23 971h213l288 -758h4l275 758h198l-460 -1180q-25 -63 -52 -116q-27 -52 -63 -89q-37 -37 -89 -57t-128 -21q-41 0 -83 6q-42 5 -81 21l23 168q55 -23 110 -22q43 0 73 11t51 33q22 22 36 50q14 29 29 65l59 154zM176 1346q0 51 40 84q40 32 87 32t87 -32 q40 -33 40 -84q0 -55 -36 -93q-36 -37 -91 -36q-55 0 -91 36q-36 37 -36 93zM594 1346q0 51 40 84q40 32 87 32t87 -32q40 -33 40 -84q0 -55 -36 -93q-36 -37 -91 -36q-55 0 -91 36q-36 37 -36 93z" />
<glyph unicode="&#x152;" horiz-adv-x="2009" d="M119 725q0 164 57 298t166 229.5t263.5 146.5t350.5 51h910v-184h-602v-432h565v-185h-565v-465h626v-184h-934q-201 0 -356.5 54.5t-263 150.5t-162.5 229t-55 291zM328 725q0 -115 40 -214t116.5 -172t191.5 -114t266 -41h125v1082h-125q-152 0 -266.5 -44t-191 -118 t-116.5 -172t-40 -207z" />
<glyph unicode="&#x153;" horiz-adv-x="1896" d="M80 485q0 111 37 204t103.5 161t158.5 106.5t205 38.5q127 0 223 -45t170 -141q25 33 59.5 65.5t80.5 59.5t106.5 44t136.5 17q104 0 188 -35.5t143.5 -100t92.5 -154t33 -197.5v-90h-736q0 -53 16.5 -104.5t52.5 -91.5t91 -63.5t133 -23.5q88 0 149.5 38t102.5 103 l152 -100q-139 -201 -408 -201q-119 0 -227.5 44t-169.5 145q-18 -27 -48 -59.5t-76 -61.5t-113.5 -48.5t-162.5 -19.5q-117 0 -209 39t-155.5 107.5t-96 162t-32.5 201.5zM276 485q0 -72 19.5 -135t57.5 -111.5t93.5 -76t126.5 -27.5q94 0 157 30t99.5 79t52 112t15.5 129 t-17.5 129.5t-54.5 112.5t-95 79t-140 30q-78 0 -137.5 -28t-98.5 -75t-58.5 -110.5t-19.5 -137.5zM1081 565h539q-2 51 -18.5 102.5t-49 91.5t-82 64.5t-114.5 24.5q-66 0 -117 -27.5t-86 -68.5t-53.5 -91.5t-18.5 -95.5z" />
<glyph unicode="&#x178;" horiz-adv-x="1253" d="M-20 1450h251l396 -637l407 637h240l-549 -832v-618h-197v618zM291 1722q0 51 40 84t87 33t87 -33t40 -84q0 -55 -36 -92t-91 -37t-91 37t-36 92zM709 1722q0 51 40 84t87 33t87 -33t40 -84q0 -55 -36 -92t-91 -37t-92 37q-36 37 -35 92z" />
<glyph unicode="&#x2c6;" horiz-adv-x="491" d="M-92 1155l229 295h217l230 -295h-187l-151 197l-152 -197h-186z" />
<glyph unicode="&#x2dc;" horiz-adv-x="491" d="M-98 1180q6 39 22.5 77.5t42 68.5t61 48.5t81.5 18.5q47 0 89 -15.5t83 -31.5q31 -12 54 -23.5t56 -11.5q41 0 65.5 26.5t35.5 63.5h98q-6 -39 -20.5 -77t-37 -68.5t-56.5 -49t-79 -18.5q-43 0 -85 13t-81 30q-31 12 -65.5 25.5t-69.5 13.5q-39 0 -62.5 -28t-33.5 -62 h-98z" />
<glyph unicode="&#x2000;" horiz-adv-x="946" />
<glyph unicode="&#x2001;" horiz-adv-x="1892" />
<glyph unicode="&#x2002;" horiz-adv-x="946" />
<glyph unicode="&#x2003;" horiz-adv-x="1892" />
<glyph unicode="&#x2004;" horiz-adv-x="630" />
<glyph unicode="&#x2005;" horiz-adv-x="473" />
<glyph unicode="&#x2006;" horiz-adv-x="315" />
<glyph unicode="&#x2007;" horiz-adv-x="315" />
<glyph unicode="&#x2008;" horiz-adv-x="236" />
<glyph unicode="&#x2009;" horiz-adv-x="378" />
<glyph unicode="&#x200a;" horiz-adv-x="105" />
<glyph unicode="&#x2010;" horiz-adv-x="647" d="M72 410v172h503v-172h-503z" />
<glyph unicode="&#x2011;" horiz-adv-x="647" d="M72 410v172h503v-172h-503z" />
<glyph unicode="&#x2012;" horiz-adv-x="647" d="M72 410v172h503v-172h-503z" />
<glyph unicode="&#x2013;" horiz-adv-x="1024" d="M0 418v160h1024v-160h-1024z" />
<glyph unicode="&#x2014;" horiz-adv-x="2048" d="M0 418v160h2048v-160h-2048z" />
<glyph unicode="&#x2018;" horiz-adv-x="569" d="M115 946l172 504h168l-142 -504h-198z" />
<glyph unicode="&#x2019;" horiz-adv-x="569" d="M115 946l141 504h199l-172 -504h-168z" />
<glyph unicode="&#x201a;" horiz-adv-x="569" d="M115 -270l141 503h199l-172 -503h-168z" />
<glyph unicode="&#x201c;" horiz-adv-x="1062" d="M180 946l172 504h168l-141 -504h-199zM543 946l172 504h168l-142 -504h-198z" />
<glyph unicode="&#x201d;" horiz-adv-x="1062" d="M180 946l142 504h198l-172 -504h-168zM543 946l141 504h199l-172 -504h-168z" />
<glyph unicode="&#x201e;" horiz-adv-x="1062" d="M180 -270l142 503h198l-172 -503h-168zM543 -270l141 503h199l-172 -503h-168z" />
<glyph unicode="&#x2022;" horiz-adv-x="1024" d="M150 725q0 76 28.5 141.5t77.5 114.5t114.5 77.5t141.5 28.5t141.5 -28.5t114.5 -77.5t77.5 -114.5t28.5 -141.5t-28.5 -141.5t-77.5 -114.5t-114.5 -78t-141.5 -29t-141.5 29t-114.5 78t-77.5 114.5t-28.5 141.5z" />
<glyph unicode="&#x2026;" horiz-adv-x="2048" d="M207 123q0 55 40 95t95 40t95 -40t40 -95t-40 -95t-95 -40t-95 40t-40 95zM889 123q0 55 40 95t95 40t95 -40t40 -95t-40 -95t-95 -40t-95 40t-40 95zM1571 123q0 55 40 95t95 40t95 -40t40 -95t-40 -95t-95 -40t-95 40t-40 95z" />
<glyph unicode="&#x202f;" horiz-adv-x="378" />
<glyph unicode="&#x2039;" horiz-adv-x="645" d="M111 498l297 442l127 -84l-240 -358l242 -359l-127 -84z" />
<glyph unicode="&#x203a;" horiz-adv-x="645" d="M109 856l127 84l299 -442l-297 -443l-127 84l239 359z" />
<glyph unicode="&#x205f;" horiz-adv-x="473" />
<glyph unicode="&#x2122;" horiz-adv-x="2048" d="M70 1315v135h667v-135h-254v-709h-159v709h-254zM899 606v844h244l227 -647h6l228 647h243v-844h-159v705h-5l-245 -705h-129l-246 705h-4v-705h-160z" />
<glyph unicode="&#xe000;" horiz-adv-x="972" d="M0 0v973h973v-973h-973z" />
<glyph unicode="&#xfb01;" d="M2 811v160h209v217q0 195 74.5 290t257.5 95q31 0 64.5 -2t72.5 -12l-21 -164q-27 10 -51 14t-53 4q-51 0 -82 -15.5t-48 -44t-22.5 -68.5t-5.5 -91v-223h219v-160h-221v-811h-184v811h-209zM758 1317q0 55 40 95t95 40t95 -40t40 -95t-40 -95t-95 -40t-95 40t-40 95z M799 0v971h184v-971h-184z" />
<glyph unicode="&#xfb02;" d="M2 811v160h209v217q0 195 74.5 290t257.5 95q31 0 64.5 -2t72.5 -12l-21 -164q-27 10 -51 14t-53 4q-51 0 -82 -15.5t-48 -44t-22.5 -68.5t-5.5 -91v-223h219v-160h-221v-811h-184v811h-209zM801 0v1548h184v-1548h-184z" />
</font>
</defs>
</svg>
